<?xml version="1.0" standalone="no"?>
<!DOCTYPE svg PUBLIC "-//W3C//DTD SVG 1.1//EN" "http://www.w3.org/Graphics/SVG/1.1/DTD/svg11.dtd" >
<svg xmlns="http://www.w3.org/2000/svg">
<metadata>
This is a custom SVG font generated by IcoMoon.
<iconset grid="16"></iconset>
</metadata>
<defs>
<font id="Elusive-Icons" horiz-adv-x="512" >
<font-face units-per-em="512" ascent="480" descent="-32" />
<missing-glyph horiz-adv-x="512" />
<glyph unicode="&#xe074;" d="M 0.00,224.00  m0.00,0.00, 88.281-88.281 -0.266,61.766 141.469,0.00 0.00-141.719 -60.984-0.266 87.50-87.50 88.281,88.281 -61.766-0.266 0.00,141.469 141.719,0.00 0.266-60.984 87.50,87.50 -88.281,88.281 0.266-61.766 -141.469,0.00 0.00,141.719 60.984,0.266 -87.50,87.50 -88.281-88.281 61.766,0.266 0.00-141.469 -141.719,0.00 -0.266,60.984 -87.50-87.50z"  />
<glyph unicode="&#xe073;" d="M 154.149,446.056 141.295,111.904c-17.297,8.876 -38.999,12.716 -61.77,9.486 -49.098-6.953 -84.452-43.992 -78.964-82.715 5.49-38.727 49.741-64.476 98.838-57.521 43.574,6.175 76.282,36.046 79.254,69.754l 0.01-0.019c 0.006,0.076 0.011,0.191 0.018,0.277 0.072,0.857 0.114,1.724 0.146,2.586 1.828,34.806 13.021,299.184 13.021,299.184l 275.684,28.404 -12.451-238.103c-17.691,9.846 -40.43,14.233 -64.341,10.845 -49.098-6.96 -84.449-43.991 -78.961-82.719 5.488-38.723 49.739-64.477 98.838-57.514 44.502,6.299 77.657,37.32 79.397,71.907l 0.021,0.021C 490.968,101.32 506.523,460.224 507.073,472.907z"  />
<glyph unicode="&#xe072;" d="M 0.564,229.996 m0.00,0.00,c-0.722,3.961 -0.545,7.324 -0.545,11.445l0.00,1.09c 64.774,5.557 135.337,21.873 187.858,59.406 15.07-6.905 29.889-5.962 44.106,1.09 29.786-30.084 59.017-50.993 98.012-63.221 3.993-10.174 10.346-17.986 19.058-23.435C 338.525,190.21 323.824,167.138 304.947,147.155 277.047,167.253 240.208,152.70 227.626,123.72 140.368,124.665 52.422,162.841 0.564,229.996 z M 227.081,89.384C 182.538,66.379 135.523,53.977 87.686,56.684 50.684,87.732 24.021,128.317 10.365,170.591 70.459,118.941 150.331,89.466 227.081,89.384 z m 98.557,6.54c 50.689,10.573 97.265,30.955 135.039,62.13 -49.581-129.267 -198.888-188.362 -321.263-133.526 39.725,5.723 77.041,19.444 108.903,37.605 31.841-18.247 69.735,0.946 77.321,33.791 z m 93.656,132.981c 19.511,1.44 38.537,2.876 56.629,5.996 -0.035-4.872 -0.538-9.667 -0.545-14.17C 441.363,177.198 390.23,147.455 339.251,133.53c 19.023,23.096 33.134,48.751 43.016,74.666 15.537,2.016 28.227,9.152 37.027,20.71 z m 8.713,34.88c-2.148,16.155 -10.229,29.267 -22.869,37.605 3.994,36.991 4.653,73.084 1.633,107.911 38.136-39.369 61.229-89.618 67.52-139.522 -13.794-2.907 -29.223-4.905 -46.283-5.996 z M 162.829,326.462C 114.727,296.155 58.405,281.433 2.742,276.866 16.642,363.739 75.814,435.537 155.206,464.893 157.362,436.682 163.895,409.444 174.264,385.868 157.617,368.964 153.664,347.293 162.829,326.462 z m 93.656,40.331c 25.071,31.129 45.914,62.939 57.719,100.281 20.328-6.904 38.66-15.805 54.996-26.706 5.705-44.888 6.498-89.599 2.178-131.346 -19.722-3.367 -35.228-15.366 -41.928-32.70 -29.117,10.541 -52.952,30.169 -74.053,51.23 5.30,13.674 5.50,26.491 1.089,39.24 z m -50.639,32.155c-10.131,25.045 -16.744,49.314 -16.879,75.755 30.379,6.989 63.178,6.757 92.023,1.09 -11.02-30.85 -28.431-59.443 -46.828-82.841 -6.473,2.765 -22.24,8.924 -28.315,5.996z"  />
<glyph unicode="&#xe071;" d="M 219.281,480.00L 219.281,183.906L 292.719,183.906L 292.719,480.00L 219.281,480.00 z M 74.969,405.031C 28.642,358.704 0.00,294.692 0.00,224.00C0.00,82.615 114.615-32.00 256.00-32.00C 397.385-32.00 512.00,82.615 512.00,224.00C 512.00,294.692 483.358,358.704 437.031,405.031L 385.469,353.469C 418.603,320.334 439.094,274.556 439.094,224.00C 439.094,122.888 357.112,40.906 256.00,40.906C 154.888,40.906 72.906,122.888 72.906,224.00C 72.906,274.556 93.397,320.334 126.531,353.469L 74.969,405.031z"  />
<glyph unicode="&#xe070;" d="M 428.475,437.695  m0.00,0.00,-260.881-260.881 -84.61,84.61 -82.983-82.983 84.61-84.61 83.525-83.525 82.983,82.983 260.881,260.881 -83.525,83.525z"  />
<glyph unicode="&#xe06f;" d="M 256.00,480.00C 114.616,480.00 0.00,365.384 0.00,224.00C0.00,82.616 114.616-32.00 256.00-32.00C 397.384-32.00 512.00,82.616 512.00,224.00C 512.00,365.384 397.384,480.00 256.00,480.00 z M 256.00,424.375C 366.664,424.375 456.344,334.637 456.344,224.00C 456.344,113.363 366.664,23.656 256.00,23.656C 145.336,23.656 55.656,113.363 55.656,224.00C 55.656,334.637 145.336,424.375 256.00,424.375 z M 354.094,345.562L 205.719,197.156L 157.594,245.281L 110.375,198.094L 158.50,149.969L 206.031,102.437L 253.219,149.656L 401.625,298.031L 354.094,345.562z"  />
<glyph unicode="&#xe06e;" d="M 256.00,480.00C 114.615,480.00 0.00,365.385 0.00,224.00C0.00,82.615 114.615-32.00 256.00-32.00C 397.385-32.00 512.00,82.615 512.00,224.00C 512.00,365.385 397.385,480.00 256.00,480.00 z M 365.844,360.094L 419.031,306.906L 252.906,140.75L 200.031,87.906L 146.844,141.094L 92.969,195.00L 145.813,247.844L 199.688,193.937L 365.844,360.094z"  />
<glyph unicode="&#xe06d;" d="M 201.439,7.317 m0.00,0.00,c 87.658,87.172 156.228,156.856 232.499,231.659 25.181,26.299 41.127,52.039 47.842,77.22 11.751,47.518 -6.316,88.666 -37.771,120.866C 413.792,467.277 381.477,481.546 347.065,479.867 312.652,478.188 278.658,460.842 245.085,427.828L 31.052,212.956 66.304,178.542 280.337,392.576c 21.962,20.881 48.097,40.566 78.06,37.771 45.651-6.409 85.965-62.282 75.541-101.56 -13.217-34.848 -31.438-50.742 -56.655-75.961 -76.713-76.517 -136.527-135.689 -211.095-210.256 -28.024-25.607 -46.148-32.54 -72.183-8.394 -13.429,13.429 -19.305,26.579 -17.627,39.449 1.862,15.017 10.364,25.402 20.144,35.252L 292.088,304.444c 8.934,8.95 29.281,26.129 37.771,18.465 6.512-15.11 -10.26-29.533 -18.465-37.771l-179.62-179.62 34.413-35.252 180.459,179.62c 31.082,32.059 53.413,71.234 18.465,107.436C 326.459,390.497 285.742,368.35 256.835,339.697L 61.268,144.129c-20.144-20.144 -31.615-41.967 -34.413-65.469 -2.206-32.947 12.649-59.395 32.735-79.737 18.88-18.777 39.278-29.179 64.629-29.377 30.482,1.22 60.453,21.297 77.22,37.771z"  />
<glyph unicode="&#xe06c;" d="M 256.00,480.00C 114.615,480.00 0.00,365.385 0.00,224.00C0.00,82.615 114.615-32.00 256.00-32.00C 397.385-32.00 512.00,82.615 512.00,224.00C 512.00,365.385 397.385,480.00 256.00,480.00 z M 317.25,384.344C 337.363,384.158 356.298,375.139 374.094,357.344C 393.853,337.116 405.195,311.288 397.813,281.437C 393.594,265.619 383.599,249.458 367.781,232.937C 319.869,185.946 276.786,142.167 221.719,87.406C 211.186,77.058 192.367,64.423 173.219,63.656C 157.293,63.781 144.454,70.329 132.594,82.125C 119.976,94.904 110.645,111.521 112.031,132.219C 113.789,146.982 121.002,160.689 133.656,173.344L 256.531,296.187C 274.69,314.187 300.251,328.121 324.531,307.281C 346.485,284.539 332.463,259.92 312.938,239.781L 199.563,126.937L 177.938,149.094L 290.781,261.937C 295.936,267.113 306.466,276.164 302.375,285.656C 297.042,290.47 284.269,279.685 278.656,274.062L 155.813,151.187C 149.669,145.00 144.326,138.495 143.156,129.062C 142.102,120.978 145.782,112.718 154.219,104.281C 170.574,89.112 181.958,93.445 199.563,109.531C 246.405,156.374 283.997,193.558 332.188,241.625C 348.029,257.467 359.478,267.452 367.781,289.344C 374.329,314.018 348.99,349.099 320.313,353.125C 301.491,354.881 285.078,342.523 271.281,329.406L 136.813,194.969L 114.688,216.562L 249.125,351.562C 270.216,372.302 291.569,383.195 313.188,384.25C 314.539,384.316 315.909,384.356 317.25,384.344z"  />
<glyph unicode="&#xe06b;" d="M 493.566,283.392C 492.823,228.789 468.995,179.268 430.42,147.543 380.26,109.365 317.274,96.644 260.778,95.66l0.00-30.72C 259.265,25.503 236.214-8.724 203.434-23.807c-12.053-5.721 -25.364-8.144 -37.547-8.192 -17.179,0.208 -33.89,5.403 -47.787,12.288l0.00,88.747c 11.722-8.259 25.154-13.818 38.571-9.899 11.868,4.404 17.30,13.686 17.408,24.917l0.00,246.443 86.699,0.00 0.00-153.60c 19.921,0.276 39.572,2.462 57.685,6.485 23.745,5.763 46.36,14.857 63.488,30.037 21.019,20.025 30.20,43.868 30.379,69.973 -0.326,38.654 -19.776,70.798 -49.493,89.429 -33.682,19.271 -71.032,25.795 -106.837,25.941 -38.61-0.846 -76.612-8.439 -107.52-27.648 -31.567-20.435 -48.526-54.226 -48.811-87.723 2.005-24.14 8.186-57.75 24.576-73.045L 68.949,150.956c-17.943,17.945 -29.766,39.915 -37.547,62.123 -7.636,23.49 -12.874,46.874 -12.971,70.315 0.944,57.006 26.276,108.466 66.219,141.995 50.399,39.40 113.678,54.312 171.349,54.613 63.144-1.073 125.55-16.975 172.032-54.272 43.588-37.052 65.15-90.68 65.536-142.336z"  />
<glyph unicode="&#xe059;" d="M 256.00,480.00C 114.615,480.00 0.00,365.385 0.00,224.00C 0.00,82.615 114.615-32.00 256.00-32.00C 397.385-32.00 512.00,82.615 512.00,224.00C 512.00,365.385 397.385,480.00 256.00,480.00 z M 215.125,368.281L 296.875,368.281L 296.875,264.875L 400.281,264.875L 400.281,183.125L 296.875,183.125L 296.875,79.719L 215.125,79.719L 215.125,183.125L 111.719,183.125L 111.719,264.875L 215.125,264.875L 215.125,368.281z"  />
<glyph unicode="&#xe058;" d="M 156.781,444.562L 156.781,367.25L 136.563,367.25L 17.156,316.437L 494.844,316.437L 375.438,367.25L 355.219,367.25L 355.219,444.562L 156.781,444.562 z M 0.00,286.75L0.00,131.281L 79.25,131.281L 51.406-4.656L 460.594-4.656L 432.75,131.281L 512.00,131.281L 512.00,286.75L0.00,286.75 z M 124.344,228.156L 387.625,228.156L 427.625,32.844L 84.344,32.844L 124.344,228.156z"  />
<glyph unicode="&#xe057;" d="M 0.00-31.998L 0.00,200.667 L 232.666,200.667 L 232.666-31.998 L 0.00-31.998  z m 0.00,279.332L 0.00,480.00 L 232.666,480.00 L 232.666,247.334 L 0.00,247.334  z m 46.333-232.999l 139.999,0.00 l0.00,139.999 l-139.999,0.00 l0.00-139.999  z m 0.00,279.332l 139.999,0.00 l0.00,139.999 l-139.999,0.00 l0.00-139.999  z m 46.667-232.666l0.00,47.00 l 47.00,0.00 l0.00-47.00 l-47.00,0.00  z m 0.00,278.999l0.00,46.333 l 47.00,0.00 l0.00-46.333 l-47.00,0.00  z m 186.332-371.999L 279.332,200.667 l 138.999,0.00 l0.00-46.333 l 47.333,0.00 l0.00,46.333 l 46.333,0.00 L 511.998,61.002 L 371.999,61.002 l0.00,46.333 l-46.333,0.00 l0.00-139.332 l-46.333,0.00  z m 0.00,279.332L 279.332,480.00 L 511.998,480.00 L 511.998,247.334 L 279.332,247.334  z m 46.333,46.333l 139.999,0.00 l0.00,139.999 l-139.999,0.00 l0.00-139.999  z m 46.333-325.666l0.00,46.333 l 46.333,0.00 l0.00-46.333 l-46.333,0.00  z m 0.00,371.999l0.00,46.333 l 46.333,0.00 l0.00-46.333 l-46.333,0.00  z m 93.667-371.999l0.00,46.333 l 46.333,0.00 l0.00-46.333 l-46.333,0.00 z"  />
<glyph unicode="&#xe056;" d="M 249.789,479.999 m0.00,0.00,c-41.444,0.10 -116.881-39.787 -119.273-75.249 -2.392-35.462 4.831-37.648 8.19-39.587l 38.904,0.00c 8.889,20.072 19.717,31.807 48.119,31.567 28.401-0.239 59.556-35.767 46.412-67.23 -13.144-31.462 -25.29-42.421 -41.464-76.444 -16.174-34.023 -21.576-85.415 -0.341-128.146l 47.948-0.853c-11.868,60.996 50.952,115.339 75.932,152.887 24.98,37.548 27.355,51.859 27.643,82.928 -0.22,29.483 -10.897,58.945 -34.126,82.928 -23.23,23.982 -56.50,37.098 -97.944,37.198 z m 2.389-395.699c-32.068,0.00 -58.016-25.947 -58.016-58.016 0.00-32.068 25.947-58.186 58.016-58.186 32.068,0.00 58.016,26.118 58.016,58.186 0.00,32.068 -25.947,58.016 -58.016,58.016z"  />
<glyph unicode="&#xe055;" d="M 256.00,480.00C 114.615,480.00 0.00,365.385 0.00,224.00C 0.00,82.615 114.615-32.00 256.00-32.00C 397.385-32.00 512.00,82.615 512.00,224.00C 512.00,365.385 397.385,480.00 256.00,480.00 z M 251.375,415.844C 282.44,415.769 307.40,405.945 324.813,387.969C 342.225,369.992 350.21,347.912 350.375,325.812C 350.159,302.524 348.381,291.801 329.656,263.656C 310.932,235.511 263.854,194.784 272.75,149.062L 236.813,149.687C 220.895,181.717 224.939,220.247 237.063,245.75C 249.186,271.253 258.272,279.448 268.125,303.031C 277.978,326.615 254.633,353.258 233.344,353.437C 212.054,353.617 203.945,344.827 197.281,329.781L 168.125,329.781C 165.607,331.235 160.176,332.856 161.969,359.437C 163.761,386.019 220.31,415.919 251.375,415.844 z M 253.188,119.25C 277.225,119.25 296.656,99.788 296.656,75.75C 296.656,51.712 277.225,32.156 253.188,32.156C 229.15,32.156 209.688,51.712 209.688,75.75C 209.688,99.788 229.15,119.25 253.188,119.25z"  />
<glyph unicode="&#xe054;" d="M 222.779,435.163C 132.051,428.787 1.635,414.302 1.563,236.616L 1.563,13.056L 204.018,13.056L 204.018,252.25L 136.794,252.25C 132.535,316.119 185.128,332.61 242.321,345.27L 222.779,435.163 z M 494.021,435.163C 403.294,428.787 272.878,414.302 272.806,236.616L 272.806,13.056L 475.261,13.056L 475.261,252.25L 408.037,252.25C 403.778,316.119 456.371,332.61 513.563,345.27L 494.021,435.163z"  />
<glyph unicode="&#xe053;" d="M 256.00,480.00C 114.615,480.00 0.00,365.385 0.00,224.00C0.00,82.615 114.615-32.00 256.00-32.00C 397.385-32.00 512.00,82.615 512.00,224.00C 512.00,365.385 397.385,480.00 256.00,480.00 z M 236.406,359.50L 247.406,308.844C 215.175,301.709 185.537,292.431 187.938,256.437L 225.813,256.437L 225.813,121.625L 111.719,121.625L 111.719,247.625C 111.759,347.76 185.277,355.907 236.406,359.50 z M 389.25,359.50L 400.281,308.844C 368.05,301.709 338.412,292.431 340.813,256.437L 378.688,256.437L 378.688,121.625L 264.594,121.625L 264.594,247.625C 264.634,347.76 338.12,355.907 389.25,359.50z"  />
<glyph unicode="&#xe052;" d="M 399.329,461.993  m0.00,0.00,0.00-79.386 -73.373,0.00c-23.214,0.00 -48.847-11.332 -70.284-32.99 -21.437-21.658 -44.733-53.788 -81.719-106.626 -37.152-53.075 -57.842-85.148 -70.744-99.561 -12.902-14.412 -10.827-13.176 -29.605-13.176l-72.716,0.00 -0.887,0.00 0.00-63.088 0.887,0.00 72.716,0.00c 28.193,0.00 56.55,11.784 76.593,34.173 20.043,22.389 38.96,53.403 75.41,105.475 36.616,52.309 59.896,83.268 74.884,98.411 14.989,15.143 15.633,14.293 25.465,14.293l 73.373,0.00 0.00-82.836L 512.00,349.322 399.329,461.993 z M 0.00,382.607l0.00-63.088 0.887,0.00 72.716,0.00c 18.778,0.00 16.703,1.269 29.605-13.143 8.301-9.273 21.977-28.939 39.036-53.724 2.312,3.317 3.402,4.916 5.849,8.412 9.293,13.275 17.734,25.253 25.531,36.177 2.714,3.802 4.986,6.801 7.557,10.35 -11.528,16.657 -21.131,29.867 -30.985,40.876C 130.153,370.856 101.796,382.607 73.603,382.607l-72.716,0.00 -0.887,0.00 z m 399.329-171.291 0.00-81.062 -73.373,0.00c-9.832,0.00 -10.477-0.817 -25.465,14.326 -9.914,10.017 -23.955,27.773 -42.584,53.231 -2.253-3.196 -4.076-5.725 -6.44-9.102 -13.044-18.634 -22.037-32.078 -31.478-46.002 13.395-17.74 24.798-31.52 35.684-42.519 21.437-21.658 47.07-33.023 70.284-33.023l 73.373,0.00 0.00-81.16L 512.00,98.645 399.329,211.317z"  />
<glyph unicode="&#xe051;" d="M 256.00-32.00 m0.00,0.00,c-141.376,0.00 -256.00,114.624 -256.00,256.00 0.00,141.376 114.624,256.00 256.00,256.00 141.376,0.00 256.00-114.624 256.00-256.00 0.00-141.376 -114.624-256.00 -256.00-256.00 z m 0.00,384.00c-70.688,0.00 -128.00-57.312 -128.00-128.00 0.00-70.688 57.312-128.00 128.00-128.00 70.688,0.00 128.00,57.312 128.00,128.00 0.00,70.688 -57.312,128.00 -128.00,128.00z"  />
<glyph unicode="&#xe050;" d="M 340.97,104.728 m0.00,0.00,c 5.801-9.393 -0.381-13.312 -5.647-17.748 -22.654-16.864 -54.361-23.029 -80.403-23.126 -24.363,0.478 -59.937,6.221 -78.252,23.126 -6.255,4.94 -9.99,12.889 -4.034,18.286 6.308,5.291 12.025-0.311 16.941-4.571 21.201-14.773 40.337-15.474 65.344-18.017 27.058,1.317 45.183,5.344 68.302,18.555 5.492,4.774 11.753,9.322 17.748,3.496 z m 93.478,335.344c-20.366,0.00 -37.776-12.655 -44.806-30.525L 290.416,433.88 248.998,316.628c-29.401-0.717 -57.005-4.839 -82.821-12.369 -25.815-7.529 -48.752-17.571 -68.831-30.12 -10.756,9.681 -23.669,14.525 -38.727,14.525 -8.246,0.00 -15.866-1.524 -22.857-4.571 -6.992-3.048 -13.183-7.266 -18.561-12.644 -5.378-5.378 -9.581-11.65 -12.628-18.821 -3.048-7.171 -4.571-14.693 -4.571-22.582 0.00-10.398 2.422-19.91 7.262-28.515 4.84-8.605 11.368-15.598 19.615-20.977 -0.359-2.868 -0.711-5.819 -1.07-8.867 -0.359-3.048 -0.535-6.191 -0.535-9.418 0.00-21.154 5.999-41.14 18.01-59.964 12.011-18.823 28.517-35.216 49.491-49.20 20.975-13.983 45.356-25.019 73.143-33.086 27.787-8.067 57.622-12.093 89.532-12.093 31.552,0.00 61.322,4.026 89.289,12.093 27.966,8.067 52.428,19.103 73.402,33.086 20.975,13.983 37.48,30.376 49.491,49.20 12.011,18.823 18.01,38.81 18.01,59.964 0.00,5.737 -0.545,11.656 -1.621,17.751 8.605,5.378 15.422,12.468 20.442,21.252 5.019,8.784 7.538,18.377 7.538,28.774 0.00,7.888 -1.524,15.411 -4.571,22.582 -3.048,7.171 -7.266,13.443 -12.644,18.821 -5.378,5.378 -11.65,9.597 -18.821,12.644 -7.171,3.048 -14.886,4.571 -23.133,4.571 -14.342,0.00 -27.238-4.844 -38.711-14.525 -19.361,12.191 -41.417,22.055 -66.156,29.585 -24.739,7.529 -51.27,11.828 -79.595,12.904l 33.88,95.189 84.069-19.712c0.00-0.059 0.00-0.119 0.00-0.178 0.00-26.584 21.546-48.13 48.13-48.13 26.584,0.00 48.146,21.546 48.146,48.13 0.00,26.584 -21.562,48.146 -48.146,48.146 z M 255.45,298.342c 29.042,0.00 56.471-3.577 82.286-10.748 25.815-7.171 48.319-16.859 67.501-29.05 19.182-12.191 34.34-26.627 45.455-43.299 11.115-16.672 16.665-34.332 16.665-52.977 0.00-18.644 -5.55-36.208 -16.665-52.701 -11.114-16.493 -26.272-30.833 -45.455-43.023 -19.182-12.191 -41.686-21.879 -67.501-29.05 -25.815-7.171 -53.244-10.748 -82.286-10.748 -29.042,0.00 -56.471,3.577 -82.286,10.748 -25.815,7.171 -48.223,16.859 -67.226,29.05 -19.003,12.191 -34.048,26.53 -45.163,43.023 -11.115,16.493 -16.681,34.057 -16.681,52.701 0.00,18.644 5.566,36.304 16.681,52.977 11.115,16.672 26.16,31.108 45.163,43.299 19.003,12.191 41.411,21.879 67.226,29.05 25.815,7.171 53.244,10.748 82.286,10.748 z m 78.055-72.186c-20.049,0.00 -36.312-16.136 -36.312-36.036 0.00-19.901 16.263-36.036 36.312-36.036 20.049,0.00 36.296,16.136 36.296,36.036 0.00,19.901 -16.247,36.036 -36.296,36.036 z m -150.744-0.567c-20.049,0.00 -36.296-16.136 -36.296-36.036 0.00-19.901 16.247-36.036 36.296-36.036 20.049,0.00 36.312,16.136 36.312,36.036 0.00,19.901 -16.263,36.036 -36.312,36.036 z m 300.191-46.379c-0.172-0.089 -0.341-0.193 -0.519-0.324 0.175,0.131 0.343,0.236 0.519,0.324z"  />
<glyph unicode="&#xe04f;" d="M 256.00,480.00C 131.729,480.00 28.164,391.443 4.906,274.00l 71.063,0.00C 97.864,352.957 170.071,411.00 256.00,411.00c 51.656,0.00 98.336-20.99 132.125-54.875L 306.00,274.00 436.031,274.00 512.00,274.00 512.00,480.00 437.00,405.00C 390.679,451.336 326.698,480.00 256.00,480.00 z M 0.00,174.00 0.00-32.00 75.00,43.00c 46.321-46.336 110.302-75.00 181.00-75.00 124.271,0.00 227.836,88.557 251.094,206.00l-71.063,0.00C 414.136,95.043 341.929,37.00 256.00,37.00 204.344,37.00 157.664,57.99 123.875,91.875L 206.00,174.00z"  />
<glyph unicode="&#xe03f;" d="M 217.438,480.00L 217.438,413.344C 141.67,397.994 82.006,338.33 66.656,262.562L0.00,262.562L0.00,185.437L 66.656,185.437C 82.006,109.67 141.67,50.006 217.438,34.656L 217.438-32.00L 294.563-32.00L 294.563,34.656C 370.33,50.006 429.994,109.67 445.344,185.437L 512.00,185.437L 512.00,262.562L 445.344,262.562C 429.994,338.33 370.33,397.994 294.563,413.344L 294.563,480.00L 217.438,480.00 z M 217.438,361.969L 217.438,287.156L 294.563,287.156L 294.563,361.969C 342.665,348.554 380.554,310.665 393.969,262.562L 319.156,262.562L 319.156,185.437L 393.969,185.437C 380.554,137.335 342.665,99.446 294.563,86.031L 294.563,160.844L 217.438,160.844L 217.438,86.031C 169.335,99.446 131.446,137.335 118.031,185.437L 192.844,185.437L 192.844,262.562L 118.031,262.562C 131.446,310.665 169.335,348.554 217.438,361.969z"  />
<glyph unicode="&#xe03e;" d="M 286.99,480.00 m0.00,0.00,c-120.877,0.00 -218.879-97.985 -218.879-218.862 0.00-42.949 12.367-83.014 33.742-116.817 -0.157-0.068 -0.311-0.13 -0.468-0.201l-95.237-95.22 80.90-80.90 98.666,98.683c-0.03,0.139 -0.069,0.278 -0.10,0.418 30.308-15.868 64.796-24.842 101.376-24.842 120.877,0.00 218.862,98.002 218.862,218.879 0.00,120.877 -97.985,218.862 -218.862,218.862 z m 0.00-97.228c 67.175,0.00 121.618-54.459 121.618-121.635 0.00-67.175 -54.443-121.635 -121.618-121.635 -67.175,0.00 -121.635,54.459 -121.635,121.635 0.00,67.175 54.459,121.635 121.635,121.635z"  />
<glyph unicode="&#xe03d;" d="M 256.00,480.00C 114.615,480.00 0.00,365.385 0.00,224.00C0.00,82.615 114.615-32.00 256.00-32.00C 397.385-32.00 512.00,82.615 512.00,224.00C 512.00,365.385 397.385,480.00 256.00,480.00 z M 273.563,369.062C 342.057,369.062 397.563,313.525 397.563,245.031C 397.563,176.537 342.057,121.031 273.563,121.031C 252.835,121.031 233.299,126.102 216.125,135.094C 216.143,135.014 216.171,134.923 216.188,134.844L 160.25,78.937L 114.438,124.781L 168.375,178.75C 168.464,178.79 168.567,178.805 168.656,178.844C 156.544,197.998 149.531,220.695 149.531,245.031C 149.531,313.525 205.069,369.062 273.563,369.062 z M 273.563,313.969C 235.498,313.969 204.625,283.096 204.625,245.031C 204.625,206.967 235.498,176.125 273.563,176.125C 311.627,176.125 342.469,206.967 342.469,245.031C 342.469,283.096 311.627,313.969 273.563,313.969z"  />
<glyph unicode="&#xe03c;" d="M 0.00,480.00  m0.00,0.00,0.00-512.00 512.00,0.00 0.00,267.313 -84.00-89.063 0.00-94.25 -344.00,0.00 0.00,344.00 169.25,0.00 0.00,84.00zM 366.023,480.00  m0.00,0.00,0.00-96.415c-87.575-0.002 -247.273-0.963 -247.273-273.876 18.106,182.501 101.282,183.649 247.273,183.651l0.00-105.29L 512.00,334.046 366.023,480.00z"  />
<glyph unicode="&#xe03b;" d="M 321.942,465.054  m0.00,0.00,0.00-125.529C 207.922,339.521 0.00,338.271 0.00-17.054 23.573,220.557 131.866,222.051 321.942,222.054l0.00-137.085L 512.00,275.026 321.942,465.054z"  />
<glyph unicode="&#xe03a;" d="M 507.601,309.218  m0.00,0.00,-21.297-122.18c-2.627-13.497 -13.38-21.704 -25.781-21.858l-310.493,0.00 -6.165-34.748 295.921,0.00c 15.583-1.184 26.152-12.222 26.341-26.341 -1.133-15.55 -12.171-26.149 -26.341-26.341l-327.307,0.00c-17.702,1.592 -28.257,15.702 -26.341,31.386L 100.148,185.356 78.851,399.451 18.321,418.507c-14.791,5.873 -20.829,19.254 -17.374,33.067 5.744,14.396 19.509,20.973 33.067,17.374l 77.343-24.66c 10.419-3.906 16.413-12.435 17.935-22.418l 4.483-42.594 350.846-39.232c 16.12-3.492 24.871-16.26 22.978-30.825 z m -314.924-286.777c0.00-22.209 -18.004-40.213 -40.213-40.213 -22.209,0.00 -40.213,18.004 -40.213,40.213 0.00,22.209 18.004,40.213 40.213,40.213 22.209,0.00 40.213-18.004 40.213-40.213 z m 240.068,0.00c0.00-22.209 -18.004-40.213 -40.213-40.213 -22.209,0.00 -40.213,18.004 -40.213,40.213 0.00,22.209 18.004,40.213 40.213,40.213 22.209,0.00 40.213-18.004 40.213-40.213z"  />
<glyph unicode="&#xe039;" d="M 256.00,480.00C 114.615,480.00 0.00,365.385 0.00,224.00 0.00,82.615 114.615-32.00 256.00-32.00 397.385-32.00 512.00,82.615 512.00,224.00 512.00,365.385 397.385,480.00 256.00,480.00 z m -129.031-108.156 45.563-14.313c 6.032-1.981 10.049-7.582 10.75-13.313l 2.563-25.094 206.313-23.031c 8.859-1.717 15.084-9.715 13.844-17.938l-12.813-72.188c-1.631-7.551 -7.885-12.727 -14.844-12.813l-183.281,0.00 -3.594-20.469 174.063,0.00c 9.102-0.321 15.768-7.251 15.875-15.344 -0.377-9.232 -7.819-15.274 -15.875-15.375l-192.50,0.00c-9.709,0.803 -16.837,8.497 -15.344,17.906l 8.188,45.063 -12.813,125.969 -35.313,11.25c-4.096,1.365 -7.171,3.933 -9.219,7.688 -3.875,8.12 -0.255,17.111 6.656,21.00 3.945,2.051 7.798,2.307 11.781,1.00 z m 69.375-238.719c 13.255,0.00 24.00-10.745 24.00-24.00 0.00-13.255 -10.745-24.00 -24.00-24.00 -13.255,0.00 -24.00,10.745 -24.00,24.00 0.00,13.255 10.745,24.00 24.00,24.00 z m 140.875,0.00c 13.255,0.00 24.00-10.745 24.00-24.00 0.00-13.255 -10.745-24.00 -24.00-24.00 -13.255,0.00 -24.00,10.745 -24.00,24.00 0.00,13.255 10.745,24.00 24.00,24.00z"  />
<glyph unicode="&#xe038;" d="M 409.60-32.00  m0.00,0.00,0.00,512.00 102.40,0.00 0.00-512.00 -102.40,0.00 z m -136.533,384.00 102.40,0.00 0.00-384.00 -102.40,0.00 0.00,384.00 z m -136.533-128.00 102.40,0.00 0.00-256.00 -102.40,0.00 0.00,256.00 z m -136.533-128.00 102.40,0.00 0.00-128.00 -102.40,0.00 0.00,128.00z"  />
<glyph unicode="&#xe037;" d="M 389.48,167.617 m0.00,0.00,c 0.262,38.99 -22.818,64.913 -54.321,79.474 -15.514,6.631 -31.407,12.046 -46.561,15.788 -20.546,5.197 -39.752,8.649 -60.207,14.45 -16.578,3.919 -36.876,16.637 -37.463,31.575 3.768,26.501 36.046,32.499 55.659,32.646 29.325,1.119 47.702-13.591 60.475-35.322 9.355-15.675 16.945-24.993 34.251-25.153 18.837,1.06 33.469,15.947 33.717,33.181 -2.631,38.815 -37.271,61.193 -69.038,71.714 -41.026,10.368 -86.071,10.677 -124.161-3.746 -36.233-13.383 -61.141-43.466 -61.545-79.206 1.818-65.677 67.847-84.559 117.204-95.262 15.032-2.996 29.524-6.128 43.349-10.703 18.49-6.714 33.996-16.852 34.251-36.392 0.00-11.774 -5.887-21.585 -17.66-29.434 -25.191-12.396 -56.297-19.072 -81.347-5.887 -17.882,8.544 -26.556,22.968 -33.717,39.068 -7.486,16.656 -16.706,27.103 -34.251,27.294 -18.394-0.686 -34.526-13.886 -34.787-31.041 2.914-34.32 26.906-62.602 54.053-77.066 51.41-21.112 108.135-25.204 157.878-4.817 38.661,16.594 63.819,50.325 64.221,88.84 z m 93.121,9.633c 9.277-19.267 13.915-39.603 13.915-61.011 -0.817-37.359 -15.626-71.997 -39.871-96.599 -27.88-26.094 -61.415-39.617 -96.599-39.871 -23.232,0.392 -45.075,5.863 -64.221,16.055 -44.715-7.767 -96.773-1.354 -134.865,14.718 -57.797,26.103 -102.113,72.278 -125.499,125.499 -17.958,47.942 -22.905,92.983 -13.647,139.146 -30.67,55.408 -21.528,122.339 21.14,165.638 47.273,45.205 115.581,50.943 169.384,18.999 76.459,12.347 154.857-14.849 206.579-65.827 44.58-46.506 68.61-107.452 69.038-166.44 -0.073-17.415 -1.949-34.494 -5.352-50.306z"  />
<glyph unicode="&#xe036;" d="M 26.574,480.00  m0.00,0.00, 0.00-247.311c-5.882,3.919 -16.366,7.198 -21.755,3.258 -5.197-6.008 2.19-14.775 5.447-20.377 32.284-32.494 65.367-53.375 104.349-70.387 -8.819-27.603 -11.412-55.26 -8.689-82.61 5.795-47.803 38.457-94.231 89.678-94.573 24.498,0.559 50.865,18.214 51.096,43.477l0.00,107.623c 6.216-1.777 12.299-4.396 18.48-5.447l0.00-100.539c0.00-7.247 1.713-13.502 5.155-18.756 10.624-15.353 27.823-24.614 45.925-24.738 53.604,2.14 83.638,46.159 89.694,94.573 2.624,28.619 -1.185,57.598 -8.705,82.626 35.541,17.947 100.306,44.291 111.692,85.593 0.512,5.124 -4.311,7.031 -8.284,7.068 -6.43-0.264 -11.635-2.656 -16.438-6.241l 0.00,246.76 z m 26.618-27.185 403.842,0.00 0.00-235.882c-6.733-4.274 -13.25-7.103 -20.101-10.326l-357.641-3.809c-9.259,3.533 -17.30,9.26 -26.099,13.05 z M 186.672,327.635c-33.32,0.00 -60.32-27.016 -60.32-60.336 0.00-33.32 27.00-60.32 60.32-60.32 33.32,0.00 60.336,27.00 60.336,60.32 0.00,33.32 -27.016,60.336 -60.336,60.336 z m 142.995,0.00c-33.32,0.00 -60.32-27.016 -60.32-60.336 0.00-33.32 27.00-60.32 60.32-60.32 33.32,0.00 60.336,27.00 60.336,60.32 0.00,33.32 -27.016,60.336 -60.336,60.336z"  />
<glyph unicode="&#xe035;" d="M 0.00,480.00  m0.00,0.00,0.00-512.00 512.00,0.00 0.00,512.00 z m 167.375-97.375c 30.524,0.00 55.281-24.726 55.281-55.25 0.00-30.524 -24.757-55.281 -55.281-55.281 -30.524,0.00 -55.281,24.757 -55.281,55.281 0.00,30.524 24.757,55.25 55.281,55.25 z m 172.281,0.00c 30.524,0.00 55.25-24.726 55.25-55.25 0.00-30.524 -24.726-55.281 -55.25-55.281 -30.524,0.00 -55.281,24.757 -55.281,55.281 0.00,30.524 24.757,55.25 55.281,55.25 z m -261.563-174.031 355.813,0.00c0.00-98.256 -79.651-177.938 -177.906-177.938 -98.256,0.00 -177.906,79.682 -177.906,177.938z"  />
<glyph unicode="&#xe023;" d="M0.00,480.00L0.00,256.00L 224.00,256.00L 224.00,480.00L0.00,480.00 z M 288.00,480.00L 288.00,256.00L 512.00,256.00L 512.00,480.00L 288.00,480.00 z M 0.00,192.00L0.00-32.00L 224.00-32.00L 224.00,192.00L0.00,192.00 z M 288.00,192.00L 288.00-32.00L 512.00-32.00L 512.00,192.00L 288.00,192.00z"  />
<glyph unicode="&#xe022;" d="M0.00,480.00L0.00,352.00L 128.00,352.00L 128.00,480.00L0.00,480.00 z M 200.00,480.00L 200.00,352.00L 512.00,352.00L 512.00,480.00L 200.00,480.00 z M 0.00,288.00L0.00,160.00L 128.00,160.00L 128.00,288.00L0.00,288.00 z M 200.00,288.00L 200.00,160.00L 512.00,160.00L 512.00,288.00L 200.00,288.00 z M 0.00,96.00L0.00-32.00L 128.00-32.00L 128.00,96.00L0.00,96.00 z M 200.00,96.00L 200.00-32.00L 512.00-32.00L 512.00,96.00L 200.00,96.00z"  />
<glyph unicode="&#xe021;" d="M 485.151,141.119  m0.00,0.00,-126.837,0.00c 2.569-20.825 6.231-40.827 10.781-60.247 2.472-36.931 -22.259-63.543 -48.198-81.175 -6.765-4.228 -13.952-5.285 -21.563-3.171 -7.191,2.537 -12.475,7.61 -15.855,15.22l-57.711,129.373 -58.344,0.00c-15.336,1.089 -25.187,11.488 -25.368,25.368l0.00,256.211c 1.089,15.336 11.488,25.187 25.368,25.368l 234.648,0.00c 12.811-0.977 25.453-5.541 35.831-11.415 17.991-10.928 30.659-25.998 36.466-44.393l 35.514-220.696c 2.115-16.735 -10.069-30.229 -24.733-30.441 z m -392.56-5.073 -74.199,0.00c-10.305,0.746 -18.25,8.203 -18.391,17.758l0.00,282.846c 0.819,10.90 8.628,17.632 18.391,17.758l 74.199,0.00c 10.756-0.748 18.257-7.889 18.391-17.758l0.00-282.846c-0.886-10.479 -8.976-17.629 -18.391-17.758z"  />
<glyph unicode="&#xe020;" d="M -0.007,467.122  m0.00,0.00,z m 305.497-25.757c 18.099,0.195 35.224-18.501 47.086-31.837 27.859-34.232 12.486-72.166 6.361-113.692l 127.07,0.00c 17.178-0.128 25.985-13.045 24.79-30.497l-35.579-220.462c-8.063-28.192 -39.402-53.01 -72.438-56.535l-235.055,0.00c-13.905,0.182 -24.324,10.051 -25.414,25.414l0.00,256.666c 0.181,13.904 10.051,24.324 25.414,25.414l 58.436,0.00 57.813,129.596c 3.215,6.994 11.643,15.776 21.516,15.934 z m -212.728-140.447c 9.78-0.125 17.577-6.886 18.397-17.805l0.00-283.358c-0.142-9.571 -8.074-17.026 -18.397-17.775l-74.34,0.00c-9.433,0.129 -17.541,7.277 -18.429,17.775l0.00,283.358c 0.135,9.886 7.653,17.055 18.429,17.805z"  />
<glyph unicode="&#xe01f;" d="M 233.22,480.00C 173.534,480.00 113.837,457.241 68.298,411.702C-22.78,320.624 -22.78,172.936 68.298,81.858C 159.376-9.22 307.064-9.22 398.142,81.858C 489.22,172.936 489.22,320.624 398.142,411.702C 352.603,457.241 292.906,480.00 233.22,480.00 z M 233.22,419.076C 277.315,419.076 321.423,402.273 355.068,368.629C 422.357,301.339 422.357,192.221 355.068,124.932C 287.779,57.643 178.661,57.643 111.371,124.932C 44.082,192.221 44.082,301.339 111.371,368.629C 145.016,402.273 189.124,419.076 233.22,419.076 z M 209.362,379.931L 209.362,270.979L 148.979,270.979L 148.979,211.336L 209.362,211.336L 269.005,211.336L 269.005,270.979L 269.005,379.931L 209.362,379.931z"  />
<glyph unicode="&#xe01e;" d="M 436.99,405.024C 390.666,451.348 326.67,480.017 255.983,480.017 114.607,480.017 -0.017,365.393 -0.017,224.017c0.00-141.376 114.624-256.00 256.00-256.00 141.376,0.00 256.00,114.624 256.00,256.00 0.00,70.687 -28.669,134.683 -74.993,181.007 z m -51.947-36.834 46.136-46.136 -173.164-173.164 -0.022,0.022 -0.022-0.022 -121.239,121.239 5.06,5.06 35.862,35.862 5.215,5.215 75.125-75.125 127.05,127.05z"  />
<glyph unicode="&#xe01d;" d="M 74.839,150.20 m0.00,0.00,c 0.57,36.14 10.635,68.654 28.742,96.765 18.657,27.943 39.382,55.132 56.686,81.117 27.469,42.361 50.752,86.24 64.989,131.256 4.949,14.121 16.183,22.106 30.019,20.439 15.419,0.946 26.098-7.266 30.019-20.439 14.991-48.743 38.895-91.351 65.308-131.256 18.037-29.408 38.641-52.105 56.367-81.117 19.232-30.564 28.569-63.629 28.742-96.765C 434.614,100.765 415.164,54.808 383.178,22.138 347.502-12.141 300.569-30.23 255.276-30.556 205.865-29.504 160.035-9.893 127.533,22.138 93.325,57.928 75.165,104.864 74.839,150.20 z M 154.039,110.281c 1.184-26.025 21.859-45.036 45.03-45.349 26.258,1.162 44.726,22.187 45.03,45.349 0.00,9.155 -2.342,17.139 -7.026,23.952 -5.148,6.70 -10.224,13.634 -14.371,20.28 -6.57,10.729 -12.993,21.398 -16.287,32.734 -0.852,4.258 -3.30,6.068 -7.345,5.429 -3.832,0.852 -6.387-0.958 -7.664-5.429C 187.961,175.102 181.943,164.398 175.596,154.512 171.132,147.062 165.781,141.264 161.065,134.232 156.169,127.206 153.827,119.222 154.039,110.281z"  />
<glyph unicode="&#xe01c;" d="M 482.001,151.014  m0.00,0.00,0.00-183.017 -452.001,0.00 0.00,183.017L 202.667,224.558C 160.138,251.862 140.159,299.745 139.789,344.699 140.35,412.293 186.725,479.412 256.00,479.997 328.761,477.611 371.814,409.491 372.211,344.699 370.766,296.093 349.339,249.927 311.017,225.12z"  />
<glyph unicode="&#xe01b;" d="M 192.587,480.00  m0.00,0.00,0.00-39.144 -147.963,0.00 0.00-72.025 422.752,0.00 0.00,72.025 -147.963,0.00 0.00,39.144 -126.826,0.00 z m -125.26-165.969 0.00-346.031 377.346,0.00 0.00,346.031 -377.346,0.00z"  />
<glyph unicode="&#xe01a;" d="M 256.00,480.00C 114.615,480.00 0.00,365.385 0.00,224.00C 0.00,82.615 114.615-32.00 256.00-32.00C 397.385-32.00 512.00,82.615 512.00,224.00C 512.00,365.385 397.385,480.00 256.00,480.00 z M 216.281,384.281L 295.719,384.281L 295.719,359.781L 388.344,359.781L 388.344,314.687L 123.656,314.687L 123.656,359.781L 216.281,359.781L 216.281,384.281 z M 137.875,280.375L 374.125,280.375L 374.125,63.719L 137.875,63.719L 137.875,280.375z"  />
<glyph unicode="&#xe019;" d="M 512.00,480.00  m0.00,0.00,0.00-512.00 -512.00,0.00 0.00,512.00 z M 298.215,106.824c-8.70,2.425 -17.279,5.182 -24.085,10.554 -2.706,2.165 -4.059,4.15 -4.059,5.954 0.00,43.659 0.00,87.318 0.00,130.977l 82.808,0.00c0.00,19.123 0.00,38.247 0.00,57.37l-82.808,0.00 0.00,86.596 -47.628,0.00c-3.551-44.459 -27.105-86.596 -73.607-86.596l0.00-57.37 39.51,0.00c0.00-47.267 0.00-94.534 0.00-141.801 0.163-22.30 10.459-41.487 28.414-51.687 16.994-8.797 34.90-11.036 52.77-11.095 17.514,0.085 36.152-0.263 52.77,0.812 14.55,0.522 28.497,3.852 40.863,10.013l0.00,61.159 0.00,0.541 0.00-0.541c-7.216-4.691 -15.154-8.66 -23.814-11.907 -14.526-4.763 -27.493-6.326 -41.133-2.977z"  />
<glyph unicode="&#xe00a;" d="M 458.166,211.417 m0.00,0.00,c 1.237,4.967 -0.037,10.075 -4.681,11.703l-19.31,8.777c-4.772,1.992 -10.846-0.699 -11.703-5.266 -3.727-7.979 -9.011-14.511 -17.554-14.628 -7.412,0.00 -13.458,3.998 -18.139,11.995 -4.681,7.997 -7.022,18.432 -7.022,31.305 0.00,12.873 2.341,23.406 7.022,31.598 4.681,8.192 10.727,12.288 18.139,12.288 9.35-0.679 13.787-6.584 17.554-14.043 1.997-4.90 7.43-6.051 11.703-4.681l 19.31,8.777c 4.472,2.354 6.464,8.181 4.096,12.288 -11.313,24.186 -28.867,36.279 -52.663,36.279 -19.895,0.00 -35.986-7.607 -48.274-22.82 -12.288-15.214 -18.432-35.108 -18.432-59.684 0.00-24.576 6.144-44.373 18.432-59.392 12.288-15.019 28.379-22.528 48.274-22.528 23.796,0.00 41.545,12.678 53.248,38.034 z M 272.091,173.383c 31.017,0.48 54.636,21.792 55.003,49.737 -0.548,14.757 -6.481,26.236 -16.969,35.108 9.235,8.72 14.537,20.596 14.628,32.183 -0.768,31.621 -27.067,46.559 -52.663,46.811 -22.235,0.00 -39.399-8.777 -51.492-26.331 -2.731-3.902 -2.341-7.803 1.17-11.703l 14.043-12.873c 4.502-4.013 9.509-3.271 13.458,0.585 5.851,8.192 12.873,12.288 21.065,12.288 6.631,0.00 10.533-1.658 11.703-4.974 2.256-4.92 1.608-9.408 0.00-13.458 -6.035-6.249 -14.856-4.389 -23.406-4.389 -5.561-0.187 -9.862-3.448 -9.947-8.777l0.00-21.065c 0.485-6.043 4.604-10.035 9.947-8.777 6.45,0.006 22.807,0.736 25.454-4.681 1.365-3.121 2.048-5.657 2.048-7.607 0.00-8.972 -4.876-13.458 -14.628-13.458 -9.362,0.00 -17.164,4.291 -23.406,12.873 -3.818,4.62 -9.85,4.687 -13.458,1.17l-14.628-14.628c-3.511-3.511 -3.901-7.217 -1.17-11.118 13.261-18.655 32.567-26.753 53.248-26.916 z m -57.929,150.967c 1.069,5.609 -3.061,11.019 -8.192,11.118l-25.746,0.00c-4.681,0.00 -7.412-2.341 -8.192-7.022L 159.744,265.836 146.871,328.446c-1.17,4.681 -4.096,7.022 -8.777,7.022l-18.724,0.00c-5.072,0.00 -7.998-2.341 -8.777-7.022L 97.718,265.836 85.43,328.446c-0.78,4.681 -3.706,7.022 -8.777,7.022l-25.161,0.00c-6.413-0.505 -9.496-5.576 -8.777-11.118l 32.183-141.605c 1.17-4.681 4.096-7.022 8.777-7.022l 24.576,0.00c 4.681,0.00 7.607,2.341 8.777,7.022l 11.703,58.514 11.703-58.514c 0.78-4.681 3.706-7.022 8.777-7.022l 24.576,0.00c 4.681,0.00 7.607,2.341 8.777,7.022 z M 511.999,479.998 511.999,87.998 256.00-32.002 0.00,87.998 0.00,479.998z" horiz-adv-x="511"  />
<glyph unicode="&#xe009;" d="M 256.00,480.00L0.00-32.00L 512.00-32.00L 256.00,480.00 z M 236.313,302.469L 275.688,302.469L 275.688,234.781L 266.063,139.594L 245.938,139.594L 236.313,234.781L 236.313,302.469 z M 236.313,102.219L 275.688,102.219L 275.688,59.812L 236.313,59.812L 236.313,102.219z"  />
<glyph unicode="&#xe008;" d="M 298.068,86.512  m0.00,0.00,-85.162,0.00 0.00,85.162 85.162,0.00 z m 107.735,0.00 -85.162,0.00 0.00,85.162 85.162,0.00 z m -215.471,0.00 -85.162,0.00 0.00,85.162 85.162,0.00 z m 215.471,269.339 0.00-156.986 -300.634,0.00 0.00,156.986 z m 43.095,45.147 -385.796,0.00 0.00-353.988 385.796,0.00 z M 0.00-15.58l0.00,479.166 512.00,0.00 0.00-479.166z"  />
<glyph unicode="&#xe007;" d="M 256.00,480.00 m0.00,0.00,c-141.385,0.00 -256.00-114.615 -256.00-256.00 0.00-141.385 114.615-256.00 256.00-256.00 141.385,0.00 256.00,114.615 256.00,256.00 0.00,141.385 -114.615,256.00 -256.00,256.00 z m -136.041-128.697 272.065,0.00 0.00-254.606 -272.065,0.00 z m 33.541-33.264 0.00-188.093 205.001,0.00 0.00,188.093 z m 22.355-23.992 159.741,0.00 0.00-83.404 -159.741,0.00 z m 0.00-97.864 45.244,0.00 0.00-45.244 -45.244,0.00 z m 57.24,0.00 45.26,0.00 0.00-45.244 -45.26,0.00 z m 57.24,0.00 45.26,0.00 0.00-45.244 -45.26,0.00z"  />
<glyph unicode="&#xe006;" d="M 354.757,129.191 m0.00,0.00,c 12.85-3.884 19.605-13.656 16.939-25.682C 369.876,95.859 367.69,88.937 365.14,82.745 351.382,47.449 328.612,19.142 299.569-0.586 267.233-21.326 231.772-31.809 196.294-32.005 147.652-30.983 102.397-12.238 69.797,18.812 36.161,52.65 17.396,97.503 17.066,141.212c 0.848,36.879 11.908,70.458 31.692,98.357 22.451,29.885 51.414,51.407 83.603,63.932 12.287,2.961 24.419-1.666 28.96-12.568 3.82-12.322 -2.113-23.713 -13.114-27.321C 122.103,252.915 100.676,236.504 85.37,215.252 69.762,192.291 61.48,166.921 61.327,141.212 62.122,105.148 77.063,72.019 100.943,48.866 128.734,23.988 161.884,10.861 196.294,10.616c 28.935,0.653 55.601,8.901 77.866,24.042 22.901,16.519 40.171,37.756 49.451,62.293 2.186,5.10 3.825,10.382 4.918,15.846 4.086,12.541 14.54,18.983 26.228,16.393 z M 492.457,45.588c 4.979-10.651 2.047-22.871 -5.191-30.053 -15.087-12.537 -35.87-8.933 -43.987,8.196L 371.151,149.409c-42.783,0.519 -88.186-0.431 -130.049-0.546 -18.223,1.133 -31.871,11.828 -34.971,28.414l-30.053,144.802 0.546,0.00c-2.335,11.57 4.964,25.976 11.475,32.512 8.014,7.832 17.85,11.748 29.507,11.748 9.471,0.00 17.759-2.732 24.862-8.196 16.881-15.035 16.195-28.313 20.491-50.271l 85.243,0.00c 9.752-0.374 18.101-7.788 20.491-15.846 3.253-16.493 -8.06-28.483 -23.769-27.321l-72.675,0.00 10.928-53.55 92.892,0.00c 14.879-0.731 26.762-7.756 32.785-20.218L 492.457,45.588 z M 203.398,377.814c-29.432,1.083 -51.161,23.032 -51.364,51.364 1.194,29.115 23.374,50.616 51.364,50.817 29.017-1.286 50.618-22.601 50.817-50.817 -1.325-29.411 -24.609-51.009 -50.817-51.364z"  />
<glyph unicode="&#xe005;" d="M 255.707-32.00C 112.743-29.252 0.999,87.941 0.00,224.292 2.78,367.15 119.351,479.00 255.707,480.00 398.574,477.143 510.999,360.832 512.00,224.292 509.176,81.32 392.242-30.999 255.707-32.00 z m 0.00,493.861C 122.964,459.246 18.478,351.047 17.554,224.292 20.136,91.443 128.957-12.937 255.707-13.861 388.557-11.279 492.937,97.543 493.86,224.292 491.355,357.134 382.274,460.938 255.707,461.86 z m -61.44-447.049 65.536,188.416 68.462-184.32c-46.124-15.44 -89.729-16.376 -133.998-4.096 z M 143.945,347.757c-23.992-3.261 -47.324-4.424 -70.217-3.511 43.468,62.144 113.065,97.106 181.979,97.719 56.367-1.067 108.915-22.373 147.456-57.344 -17.874,1.321 -28.577-6.518 -36.279-19.895 -11.194-34.534 12.459-60.097 25.746-86.016 12.563-23.682 11.567-50.611 4.681-73.728L 364.544,93.22 285.55,327.862c 8.231,0.766 16.516,1.013 23.991,2.341 8.848,1.97 10.789,10.203 4.681,15.214 -1.95,1.561 -4.096,2.341 -6.437,2.341l-47.397-3.511 -35.986,0.00c-10.16-0.60 -38.848,9.215 -41.253-4.096 -1.242-5.127 2.585-9.146 7.022-9.947 7.827-1.014 16.796-2.166 23.991-2.926l 34.523-92.453 -47.982-141.605 -79.579,234.642c 8.421,0.731 16.953,0.986 24.576,2.341 6.242,0.782 8.972,3.903 8.192,9.362 -1.107,4.854 -5.433,8.134 -9.947,8.192 z m -87.771-36.279 104.741-283.209C 123.121,46.897 93.243,74.291 71.972,106.971 33.062,169.065 28.969,247.841 56.174,311.479 z m 409.307-145.408c-17.196-56.153 -52.317-102.662 -100.937-130.779 2.341,6.242 6.046,16.774 11.118,31.598l 60.855,176.713c 5.851,17.164 9.947,36.279 12.288,57.344 0.79,8.618 0.817,17.308 -0.585,25.161 24.934-53.778 32.008-107.047 17.262-160.037z"  />
<glyph unicode="&#xe004;" d="M 412.247,471.913C 363.906,489.307 307.739,478.644 269.005,439.91c-38.734-38.734 -49.396-94.901 -32.003-143.241l-237.003-237.003 82.359-82.359 237.003,237.003c 48.34-17.394 104.507-6.731 143.241,32.003 38.734,38.734 49.396,94.901 32.003,143.241L 411.262,306.21 351.899,329.206 328.903,388.569 412.247,471.913 z M 98.938,76.245c 9.452-9.452 9.452-24.775 0.00-34.227 -9.452-9.452 -24.775-9.452 -34.227,0.00 -9.452,9.452 -9.452,24.775 0.00,34.227 9.452,9.452 24.775,9.452 34.227,0.00z"  />
<glyph unicode="&#xe003;" d="M 256.00,480.00C 114.615,480.00 0.00,365.385 0.00,224.00 0.00,82.615 114.615-32.00 256.00-32.00 397.385-32.00 512.00,82.615 512.00,224.00 512.00,365.385 397.385,480.00 256.00,480.00 z m 69.719-102.344c 9.698,0.027 19.421-1.615 28.656-4.938l-50.969-50.969 14.063-36.281 36.281-14.063 50.969,50.969c 10.633-29.552 4.117-63.914 -19.563-87.594 -23.679-23.679 -58.011-30.196 -87.563-19.563l-144.906-144.875 -50.344,50.344 144.875,144.906c-10.633,29.552 -4.117,63.883 19.563,87.563 16.279,16.279 37.601,24.44 58.938,24.50 z M 141.906,130.812c-5.778-5.778 -5.778-15.128 0.00-20.906 5.778-5.778 15.128-5.778 20.906,0.00 5.778,5.778 5.778,15.128 0.00,20.906 -6.263,5.693 -15.509,5.234 -20.906,0.00z"  />
<glyph unicode="&#xe002;" d="M 512.00,29.678 0.00,29.679l0.00,388.64 512.00,0.00 z M 182.312,110.464 361.347,222.907 182.312,335.35z" horiz-adv-x="511"  />
<glyph unicode="&#xe001;" d="M 262.045,348.961  m0.00,0.00,-65.519,0.00 0.00-65.519 -65.519,0.00 0.00-65.519 65.519,0.00 0.00-65.519 65.519,0.00 0.00,65.519 65.519,0.00 0.00,65.519 -65.519,0.00 z m 249.956-323.928 -94.642,94.642c 25.946,37.149 41.277,82.259 41.277,131.006 0.00,126.649 -102.701,229.317 -229.317,229.317 -126.616,0.00 -229.317-102.669 -229.317-229.317 0.00-126.649 102.669-229.317 229.317-229.317 48.746,0.00 93.889,15.332 131.038,41.277l 94.642-94.642 z M 229.284,86.85c-90.449,0.00 -163.798,73.316 -163.798,163.798 0.00,90.482 73.349,163.798 163.798,163.798 90.482,0.00 163.798-73.316 163.798-163.798 0.033-90.482 -73.283-163.798 -163.798-163.798z"  />
<glyph unicode="&#xe000;" d="M 512.001,25.033  m0.00,0.00,-94.642,94.642c 25.946,37.149 41.277,82.259 41.277,131.006 0.00,126.649 -102.701,229.317 -229.317,229.317 -126.616,0.00 -229.317-102.669 -229.317-229.317 0.00-126.649 102.669-229.317 229.317-229.317 48.746,0.00 93.889,15.332 131.038,41.277l 94.642-94.642 z M 229.284,86.85c-90.449,0.00 -163.798,73.316 -163.798,163.798 0.00,90.482 73.349,163.798 163.798,163.798 90.482,0.00 163.798-73.316 163.798-163.798 0.033-90.482 -73.283-163.798 -163.798-163.798 z m -98.279,131.071 196.558,0.00 0.00,65.519 -196.558,0.00z"  />
<glyph unicode="&#xe069;" d="M 256.00,480.00C 114.615,480.00 0.00,365.385 0.00,224.00C0.00,82.615 114.615-32.00 256.00-32.00C 397.385-32.00 512.00,82.615 512.00,224.00C 512.00,365.385 397.385,480.00 256.00,480.00 z M 141.156,356.531L 218.688,356.531L 218.688,91.469L 141.156,91.469L 141.156,356.531 z M 293.313,356.531L 370.844,356.531L 370.844,91.469L 293.313,91.469L 293.313,356.531z"  />
<glyph unicode="&#xe068;" d="M 493.613,399.465 427.109,465.97C 408.771,484.307 377.742,483.108 357.856,463.172 337.969,443.285 336.67,412.206 355.057,393.869l 66.504-66.504c 18.338-18.338 49.366-17.138 69.303,2.798 19.886,19.937 21.136,50.915 2.748,69.303 z M 69.652,175.018 202.661,42.01 418.815,258.111 285.805,391.121 69.652,175.018 z M 0.00-25.595 175.43,9.532 35.126,149.836 0.00-25.595z"  />
<glyph unicode="&#xe067;" d="M 256.00,480.00 m0.00,0.00,c-141.385,0.00 -256.00-114.615 -256.00-256.00 0.00-141.385 114.615-256.00 256.00-256.00 141.385,0.00 256.00,114.615 256.00,256.00 0.00,141.385 -114.615,256.00 -256.00,256.00 z m 86.128-79.968c 7.505-0.059 14.791-2.827 20.296-8.332l 42.602-42.586c 11.776-11.776 10.969-31.617 -1.767-44.385 -12.768-12.768 -32.641-13.527 -44.385-1.783l-42.586,42.586c-11.776,11.744 -10.953,31.649 1.783,44.385 6.766,6.783 15.551,10.183 24.057,10.116 z m -70.192-56.267 85.187-85.171 -138.44-138.407 -85.187,85.187 138.44,138.391 z m -160.551-154.521 89.856-89.856 -112.357-22.50 22.50,112.357z"  />
<glyph unicode="&#xe066;" d="M 300.322,366.462 m0.00,0.00,c 7.705,0.00 14.796-1.488 21.275-4.465 19.231-9.68 30.586-28.077 30.731-48.591l0.00-141.308c-3.608-22.464 -29.319-16.355 -29.943,0.00l0.00,133.429c-2.292,7.609 -16.984,4.454 -17.336,0.00l0.00-306.255c-3.736-31.272 -44.146-22.093 -45.177,0.525 0.00,62.512 0.00,125.024 0.00,187.536 -2.584,12.096 -19.589,6.60 -19.962-0.525 0.721-62.334 0.525-124.673 0.525-187.01 -4.03-31.111 -44.244-23.151 -45.177-0.525l-0.525,306.255c-2.355,7.445 -15.969,4.589 -16.285,0.00l0.00-133.429c-3.608-22.464 -29.319-16.355 -29.943,0.00l0.00,141.308c 0.363,19.639 7.561,39.315 24.69,48.591 5.603,2.977 12.433,4.465 20.487,4.465 35.546,0.00 71.092,0.00 106.638,0.00 z m -0.53,64.173c0.00-27.263 -22.101-49.365 -49.365-49.365 -27.263,0.00 -49.365,22.101 -49.365,49.365 0.00,27.263 22.101,49.365 49.365,49.365 27.263,0.00 49.365-22.101 49.365-49.365z"  />
<glyph unicode="&#xe065;" d="M 499.753,62.225  m0.00,0.00,-71.393-70.821c-10.538-10.808 -24.508-14.469 -38.112-14.486C 330.086-21.279 273.22,8.273 226.527,38.619 149.887,94.375 79.565,163.51 35.431,247.057 18.504,282.091 -1.358,326.791 0.539,365.896c 0.169,14.71 4.133,29.147 14.493,38.63l 71.393,71.358c 14.825,12.61 29.162,8.25 38.649-6.438l 57.436-108.913c 6.045-12.903 2.578-26.727 -6.441-35.947l-26.303-26.289c-1.624-2.224 -2.657-4.756 -2.684-7.512 10.086-39.042 40.643-75.028 67.636-99.793 26.993-24.765 56.007-58.317 93.67-66.26 4.655-1.299 10.357-1.755 13.688,1.341l 30.597,31.118c 10.548,7.995 25.777,11.902 37.039,5.365l 0.537,0.00 103.60-61.164c 15.208-9.533 16.794-27.958 5.904-39.166z"  />
<glyph unicode="&#xe064;" d="M 256.00,480.00C 114.615,480.00 0.00,365.385 0.00,224.00C 0.00,82.615 114.615-32.00 256.00-32.00C 397.385-32.00 512.00,82.615 512.00,224.00C 512.00,365.385 397.385,480.00 256.00,480.00 z M 164.00,378.312C 169.275,378.624 174.042,375.471 177.656,369.875L 212.656,303.50C 216.341,295.635 214.248,287.213 208.75,281.594L 192.719,265.562C 191.729,264.207 191.078,262.68 191.063,261.00C 197.211,237.202 215.859,215.252 232.313,200.156C 248.766,185.061 266.45,164.623 289.406,159.781C 292.244,158.99 295.72,158.707 297.75,160.594L 316.375,179.562C 322.804,184.436 332.104,186.797 338.969,182.812L 339.281,182.812L 402.438,145.531C 411.708,139.72 412.669,128.488 406.031,121.656L 362.531,78.50C 356.108,71.912 347.573,69.697 339.281,69.687C 302.61,70.786 267.96,88.785 239.50,107.281C 192.785,141.267 149.933,183.418 123.031,234.344C 112.713,255.698 100.593,282.945 101.75,306.781C 101.853,315.748 104.279,324.533 110.594,330.312L 154.094,373.812C 157.482,376.695 160.835,378.126 164.00,378.312z"  />
<glyph unicode="&#xe063;" d="M0.00,466.781L0.00-18.781L 512.00-18.781L 512.00,466.781L0.00,466.781 z M 63.188,405.531L 448.813,405.531L 448.813,139.25L 63.188,139.25L 63.188,405.531z"  />
<glyph unicode="&#xe062;" d="M 256.00,480.00C 114.615,480.00 0.00,365.385 0.00,224.00C0.00,82.615 114.615-32.00 256.00-32.00C 397.385-32.00 512.00,82.615 512.00,224.00C 512.00,365.385 397.385,480.00 256.00,480.00 z M 118.625,354.281L 393.375,354.281L 393.375,93.719L 118.625,93.719L 118.625,354.281 z M 152.531,321.406L 152.531,178.531L 359.469,178.531L 359.469,321.406L 152.531,321.406z"  />
<glyph unicode="&#xe061;" d="M 388.62,439.509 m0.00,0.00,c 75.976-47.385 122.947-129.32 123.38-215.779 0.00-28.988 -4.892-56.708 -14.675-83.159l-108.705,0.00 z m 97.291-325.571c-40.483-81.338 -120.057-133.494 -206.539-142.403 -44.333-2.839 -92.473,5.549 -128.272,21.197l0.00,121.206 z M 0.00,223.729C 1.131,320.713 56.708,406.314 139.142,448.749l 97.291-86.964 -227.193-203.822c-6.16,22.465 -9.24,44.388 -9.24,65.766 z M 123.923,7.407C 75.579,37.702 38.661,81.668 18.48,130.243L 123.923,225.36 z M 361.444,285.148 166.318,460.706c 29.796,10.016 60.519,16.20 89.681,16.306 36.96,0.00 72.108-7.609 105.444-22.828z"  />
<glyph unicode="&#xe060;" d="M 0.00,437.656L 0.00,10.344L 512.00,10.344L 512.00,437.656L 0.00,437.656 z M 39.281,397.719L 472.719,397.719L 472.719,50.281L 39.281,50.281L 39.281,397.719 z M 128.625,347.562C 116.401,347.562 106.116,343.397 97.781,335.062C 89.447,326.728 85.281,316.443 85.281,304.219C 85.281,292.55 89.447,282.553 97.781,274.219C 106.116,265.884 116.401,261.719 128.625,261.719C 140.293,261.719 150.29,265.884 158.625,274.219C 166.96,282.553 171.125,292.55 171.125,304.219C 171.125,316.443 166.96,326.728 158.625,335.062C 150.29,343.397 140.293,347.562 128.625,347.562 z M 312.813,326.437L 214.469,177.25L 162.25,220.594L 85.281,120.594L 85.281,91.406L 426.719,91.406L 426.719,208.656L 312.813,326.437z"  />
<glyph unicode="&#xe05f;" d="M 256.00,480.00 m0.00,0.00,c 152.087-2.844 255.007-119.478 256.00-256.00 -2.72-145.46 -119.478-255.007 -256.00-256.00 -25.255,0.098 -49.912,4.029 -72.432,10.505 4.792,7.741 9.584,16.311 14.376,25.711 10.106,20.545 14.721,42.547 19.905,63.585 2.212,9.031 5.345,20.919 9.40,35.663 4.423-8.478 12.441-15.85 24.052-22.117 30.308-14.746 67.857-9.874 94.825,3.87 37.835,21.491 60.006,54.87 71.879,92.337 22.862,86.887 -6.617,170.427 -85.425,204.026 -95.025,28.623 -201.075-7.099 -238.03-92.061 -16.135-56.778 -15.18-129.675 40.916-153.434 2.95-1.106 5.623-1.106 8.017,0.00 5.265,3.008 11.371,29.08 10.229,34.557 -0.369,1.659 -1.659,3.963 -3.87,6.912 -31.003,41.971 -12.108,104.432 16.864,135.741 49.266,42.316 125.942,49.188 171.127,8.847 40.078-46.756 30.976-119.522 5.253-165.875 -14.213-22.667 -33.28-39.797 -58.886-40.086 -26.953,0.597 -47.282,23.404 -40.363,49.209 5.88,30.284 22.193,62.402 22.669,90.678 -1.302,23.519 -13.08,38.435 -34.834,38.704 -34.725-4.379 -48.744-36.846 -49.209-66.35 1.11-14.178 1.97-28.609 8.294-40.363 -7.372-29.858 -13.086-53.909 -17.14-72.156 -6.216-32.373 -18.403-66.231 -20.181-97.59 -0.553-10.321 -0.645-19.905 -0.277-28.752 -94.859,44.985 -152.597,132.855 -153.158,234.436 2.763,147.752 119.478,255.007 256.00,256.00z"  />
<glyph unicode="&#xe05e;" d="M 136.96-16.64  m0.00,0.00, 51.20,0.00 114.893,204.826 132.147,0.00c0.00,0.00 76.80,0.00 76.80,35.814 0.00,35.84 -76.80,35.84 -76.80,35.84l-132.147,0.00 -114.893,204.80 -51.20,0.00 63.693-204.80 -91.827,0.00 -57.626,51.226 -51.20,0.00L 40.986,224.025 0.00,136.96l 51.20,0.00 57.626,51.226 91.827,0.00 -63.693-204.826z"  />
<glyph unicode="&#xe05c;" d="M 256.00-32.00 m0.00,0.00,c-141.376,0.00 -256.00,114.624 -256.00,256.00 0.00,141.376 114.624,256.00 256.00,256.00 141.376,0.00 256.00-114.624 256.00-256.00 0.00-141.376 -114.624-256.00 -256.00-256.00 z m -64.00,383.808 0.00-255.616 192.00,127.808 -192.00,127.808z"  />
<glyph unicode="&#xe05b;" d="M 256.00,480.00C 114.624,480.00 0.00,365.376 0.00,224.00C0.00,82.624 114.624-32.00 256.00-32.00C 397.376-32.00 512.00,82.624 512.00,224.00C 512.00,365.376 397.376,480.00 256.00,480.00 z M 256.00,420.625C 364.586,420.625 452.625,332.586 452.625,224.00C 452.625,115.414 364.586,27.375 256.00,27.375C 147.414,27.375 59.375,115.414 59.375,224.00C 59.375,332.586 147.414,420.625 256.00,420.625 z M 192.00,351.812L 192.00,96.187L 384.00,224.00L 192.00,351.812z"  />
<glyph unicode="&#xe05a;" d="M 183.50,480.00L 183.50,296.50L0.00,296.50L0.00,151.50L 183.50,151.50L 183.50-32.00L 328.50-32.00L 328.50,151.50L 512.00,151.50L 512.00,296.50L 328.50,296.50L 328.50,480.00L 183.50,480.00z"  />
<glyph unicode="&#xe04e;" d="M 0.00,367.001 143.001,224.00 0.00,80.998 112.998-32.00 256.00,111.001 399.001-32.00 512.00,80.998 368.998,224.00 512.00,367.001 399.001,480.00 256.00,336.998 112.998,480.00 0.00,367.001z"  />
<glyph unicode="&#xe04d;" d="M 256.00,480.00C 114.616,480.00 0.00,365.384 0.00,224.00C0.00,82.616 114.616-32.00 256.00-32.00C 397.384-32.00 512.00,82.616 512.00,224.00C 512.00,365.384 397.384,480.00 256.00,480.00 z M 256.00,424.375C 366.664,424.375 456.344,334.637 456.344,224.00C 456.344,113.363 366.664,23.656 256.00,23.656C 145.336,23.656 55.656,113.363 55.656,224.00C 55.656,334.637 145.336,424.375 256.00,424.375 z M 185.781,349.719L 130.281,294.219L 200.50,224.00L 130.281,153.781L 185.781,98.281L 256.00,168.50L 326.219,98.281L 381.719,153.781L 311.50,224.00L 381.719,294.219L 326.219,349.719L 256.00,279.50L 185.781,349.719z"  />
<glyph unicode="&#xe04c;" d="M 256.00,480.00C 114.615,480.00 0.00,365.385 0.00,224.00C 0.00,82.615 114.615-32.00 256.00-32.00C 397.385-32.00 512.00,82.615 512.00,224.00C 512.00,365.385 397.385,480.00 256.00,480.00 z M 175.563,368.00L 256.00,287.562L 336.438,368.00L 400.00,304.437L 319.563,224.00L 400.00,143.562L 336.438,80.00L 256.00,160.437L 175.563,80.00L 112.00,143.562L 192.438,224.00L 112.00,304.437L 175.563,368.00z"  />
<glyph unicode="&#xe04b;" d="M 256.00,480.00C 114.615,480.00 0.00,365.385 0.00,224.00C0.00,82.615 114.615-32.00 256.00-32.00C 350.895-32.00 433.66,19.671 477.875,96.375L 387.75,148.219C 361.479,102.654 312.374,71.906 256.00,71.906C 172.001,71.906 103.906,140.001 103.906,224.00C 103.906,307.999 172.001,376.094 256.00,376.094C 292.005,376.094 325.006,363.498 351.031,342.562L 283.813,294.75L 512.00,218.656L 512.00,457.125L 437.688,404.25C 391.306,451.007 327.063,480.00 256.00,480.00z"  />
<glyph unicode="&#xe04a;" d="M 256.00,480.00C 114.615,480.00 0.00,365.385 0.00,224.00C 0.00,82.615 114.615-32.00 256.00-32.00C 397.385-32.00 512.00,82.615 512.00,224.00C 512.00,365.385 397.385,480.00 256.00,480.00 z M 256.00,372.281C 297.16,372.281 334.386,355.488 361.25,328.406L 404.281,359.031L 404.281,220.906L 272.094,264.969L 311.031,292.687C 295.957,304.814 276.854,312.094 256.00,312.094C 207.347,312.094 167.906,272.653 167.906,224.00C 167.906,175.347 207.347,135.906 256.00,135.906C 288.652,135.906 317.096,153.702 332.313,180.094L 384.50,150.094C 358.89,105.666 310.964,75.719 256.00,75.719C 174.109,75.719 107.719,142.109 107.719,224.00C 107.719,305.891 174.109,372.281 256.00,372.281z"  />
<glyph unicode="&#xe049;" d="M 178.567,221.299 75.638,118.371 0.00,194.009l 0.00-226.009 226.009,0.00 -75.638,75.638 102.928,102.928 -74.732,74.732zM 333.433,226.701 436.362,329.629 512.00,253.991l0.00,226.009 -226.009,0.00 75.638-75.638 -102.928-102.928 74.732-74.732z"  />
<glyph unicode="&#xe048;" d="M 129.75,353.75 0.00,224.00l 129.75-129.75 0.00,86.844 252.50,0.00 0.00-86.844L 512.00,224.00 382.25,353.75l0.00-86.844 -252.50,0.00z"  />
<glyph unicode="&#xe047;" d="M 74.732-32.00  m0.00,0.00, 102.928,102.928 75.638-75.638 0.00,226.009 -226.009,0.00 75.638-75.638L0.00,42.732 74.732-32.00zM 437.268,480.00  m0.00,0.00,-102.928-102.928 -75.638,75.638 0.00-226.009 226.009,0.00L 409.072,302.339 512.00,405.267 437.268,480.00z"  />
<glyph unicode="&#xe046;" d="M 385.749,350.25  m0.00,0.00,-129.75,129.75 -129.75-129.75 86.844,0.00 0.00-134.313 0.00-15.875 0.00-102.313 -86.844,0.00 129.75-129.75 129.75,129.75 -86.844,0.00 0.00,102.313 0.00,15.875 0.00,134.313 86.844,0.00z"  />
<glyph unicode="&#xe045;" d="M 128.00,384.00L0.00,256.00L 96.00,256.00L 96.00,96.00L 288.00,96.00L 224.00,160.00L 160.00,160.00L 160.00,256.00L 256.00,256.00L 128.00,384.00 z M 224.00,352.00L 288.00,288.00L 352.00,288.00L 352.00,192.00L 256.00,192.00L 384.00,64.00L 512.00,192.00L 416.00,192.00L 416.00,352.00L 224.00,352.00z"  />
<glyph unicode="&#xe044;" d="M 256.00-32.00 m0.00,0.00,c-141.376,0.00 -256.00,114.624 -256.00,256.00 0.00,141.376 114.624,256.00 256.00,256.00 141.376,0.00 256.00-114.624 256.00-256.00 0.00-141.376 -114.624-256.00 -256.00-256.00 z m -32.00,351.84 -128.00-95.84 128.00-95.84 0.00,191.68 z m 160.00,0.00 -128.00-95.84 128.00-95.84 0.00,191.68z"  />
<glyph unicode="&#xe043;" d="M 511.999-31.999 m0.00,0.00,c0.00,0.00 -103.363,511.999 -103.363,511.999 0.00,0.00 -127.595,0.00 -127.595,0.00 0.00,0.00 3.91-118.048 3.91-118.048 0.00,0.00 -57.904,0.00 -57.904,0.00 0.00,0.00 3.91,118.048 3.91,118.048 0.00,0.00 -127.595,0.00 -127.595,0.00 0.00,0.00 -103.363-511.999 -103.363-511.999 0.00,0.00 214.00,0.00 214.00,0.00 0.00,0.00 4.882,147.39 4.882,147.39 0.00,0.00 74.237,0.00 74.237,0.00 0.00,0.00 4.882-147.39 4.882-147.39 0.00,0.00 214.00,0.00 214.00,0.00 0.00,0.00 0.00,0.00 0.00,0.00M 291.657,159.475c0.00,0.00 -71.316,0.00 -71.316,0.00 0.00,0.00 5.751,173.638 5.751,173.638 0.00,0.00 59.814,0.00 59.814,0.00 0.00,0.00 5.751-173.638 5.751-173.638 0.00,0.00 0.00,0.00 0.00,0.00"  />
<glyph unicode="&#xe042;" d="M 511.999-31.999 m0.00,0.00,c0.00,282.769 -229.23,511.999 -511.999,511.999l0.00-102.406c 226.216,0.00 409.593-183.378 409.593-409.593l 102.406,0.00 z m -204.813,0.00c0.00,169.662 -137.526,307.187 -307.187,307.187l0.00-102.375c 113.108,0.00 204.813-91.705 204.813-204.813l 102.375,0.00 z m -204.781,0.00c0.00,56.554 -45.852,102.406 -102.406,102.406l0.00-102.406 102.406,0.00z"  />
<glyph unicode="&#xe041;" d="M 0.00,435.812  m0.00,0.00,0.00-338.00 185.906,0.00 0.00-48.719 -45.313,0.00 0.00-36.906 230.813,0.00 0.00,36.906 -45.313,0.00 0.00,48.719 185.906,0.00 0.00,338.00 -512.00,0.00 z m 62.969-63.813 386.063,0.00 0.00-210.406 -386.063,0.00 0.00,210.406z"  />
<glyph unicode="&#xe040;" d="M 256.00,480.00C 114.615,480.00 0.00,365.385 0.00,224.00C0.00,82.615 114.615-32.00 256.00-32.00C 397.385-32.00 512.00,82.615 512.00,224.00C 512.00,365.385 397.385,480.00 256.00,480.00 z M 106.688,347.531L 405.313,347.531L 405.313,150.406L 296.875,150.406L 296.875,122.00L 323.313,122.00L 323.313,100.469L 188.688,100.469L 188.688,122.00L 215.125,122.00L 215.125,150.406L 106.688,150.406L 106.688,347.531 z M 143.438,310.312L 143.438,187.594L 368.563,187.594L 368.563,310.312L 143.438,310.312z"  />
<glyph unicode="&#xe034;" d="M 256.00,480.00C 114.615,480.00 0.00,365.385 0.00,224.00C0.00,82.615 114.615-32.00 256.00-32.00C 397.385-32.00 512.00,82.615 512.00,224.00C 512.00,365.385 397.385,480.00 256.00,480.00 z M 122.094,357.906L 389.906,357.906L 389.906,90.094L 122.094,90.094L 122.094,357.906 z M 209.625,306.969C 193.658,306.969 180.719,294.03 180.719,278.062C 180.719,262.095 193.658,249.156 209.625,249.156C 225.592,249.156 238.563,262.095 238.563,278.062C 238.563,294.03 225.592,306.969 209.625,306.969 z M 299.75,306.969C 283.783,306.969 270.844,294.03 270.844,278.062C 270.844,262.095 283.783,249.156 299.75,249.156C 315.717,249.156 328.656,262.095 328.656,278.062C 328.656,294.03 315.717,306.969 299.75,306.969 z M 162.938,215.937C 162.938,164.54 204.602,122.875 256.00,122.875C 307.397,122.875 349.063,164.54 349.063,215.937L 162.938,215.937z"  />
<glyph unicode="&#xe033;" d="M 0.00,289.573  m0.00,0.00, 120.656,0.00 181.508,147.934 0.00-508.853 -181.508,147.934 -120.656,0.00 z m 370.361,24.132c 35.672-35.672 53.858-79.038 54.558-130.098 0.00-48.962 -18.186-90.929 -54.558-125.902L 333.641,95.473c 25.18,25.18 37.77,54.907 37.77,89.18 0.00,34.973 -12.59,65.399 -37.77,91.278l 36.722,37.77 z m 62.95,61.902c 52.46-52.46 78.688-115.76 78.688-189.902 0.00-74.142 -26.23-137.793 -78.688-190.952l-38.82,38.82c 41.968,41.268 62.952,91.804 62.952,151.606 0.00,59.804 -20.984,110.688 -62.952,152.656z"  />
<glyph unicode="&#xe032;" d="M 121.236,77.283  m0.00,0.00,0.00-41.769 201.753,0.00 0.00,41.769 -201.753,0.00 z m 3.415,75.132 -2.89-41.769 201.227-13.66 2.627,41.506 -200.965,13.923 z m -61.997,17.338 0.00-201.753 33.363,0.00 264.274,0.00 21.279,0.00 0.00,201.753 -33.363,0.00 0.00-168.127 -252.191,0.00 0.00,168.127 -33.363,0.00 z m 77.234,71.454 -9.982-40.456 195.711-48.599 9.982,40.718 -195.711,48.337 z M 183.232,342.346 161.954,306.356 335.859,204.167 357.138,240.419 183.232,342.346 z m 106.13,95.885 -34.676-23.38 112.172-167.339 34.676,23.117 -112.172,167.602 z m 135.553,41.769 -41.506-4.991 24.431-200.177 41.506,4.991 -24.431,200.177z"  />
<glyph unicode="&#xe031;" d="M 410.18-20.532 253.476,94.379 93.746-16.287 154.609,168.256 0.00,285.97 194.319,285.114 258.495,468.531 317.728,283.458 512.00,279.102 354.289,165.578z"  />
<glyph unicode="&#xe030;" d="M 256.00,480.00C 114.615,480.00 0.00,365.385 0.00,224.00C0.00,82.615 114.615-32.00 256.00-32.00C 397.385-32.00 512.00,82.615 512.00,224.00C 512.00,365.385 397.385,480.00 256.00,480.00 z M 257.688,390.437L 298.031,264.469L 430.25,261.50L 322.906,184.25L 360.938,57.562L 254.281,135.781L 145.563,60.437L 187.00,186.062L 81.75,266.187L 214.031,265.594L 257.688,390.437z"  />
<glyph unicode="&#xe02f;" d="M 258.494,468.527  m0.00,0.00,-15.98-45.661 -48.194-137.744 -145.924,0.633 -48.397,0.228 38.52-29.327 116.091-88.41 -45.712-138.554 -15.145-45.965 39.786,27.554 119.94,83.092 117.686-86.283 39.026-28.617L 396.263,25.818 354.273,165.588 472.719,250.832 511.999,279.12 463.628,280.184 317.729,283.476 273.258,422.435 258.494,468.527 z m -1.368-102.035 33.252-103.909 3.52-11.017 11.548-0.253 109.076-2.431 -88.537-63.744 -9.396-6.737 3.343-11.067 31.378-104.492 -87.98,64.503 -9.32,6.838 -9.497-6.585 -89.677-62.123 34.189,103.606 3.596,10.966 -9.193,7.015 -86.764,66.073 109.076-0.481 11.548-0.051 3.824,10.915 36.013,102.972z"  />
<glyph unicode="&#xe02b;" d="M 256.00,480.00C 114.615,480.00 0.00,365.385 0.00,224.00C 0.00,82.615 114.615-32.00 256.00-32.00C 397.385-32.00 512.00,82.615 512.00,224.00C 512.00,365.385 397.385,480.00 256.00,480.00 z M 128.00,352.00L 384.00,352.00L 384.00,96.00L 128.00,96.00L 128.00,352.00z"  />
<glyph unicode="&#xe02a;" d="M 445.455,383.996C 499.976,310.988 512.00,214.998 478.303,134.912 436.346,41.767 345.414-16.399 248.899-17.10 153.888-16.042 69.551,37.778 27.239,118.377l 108.426,0.00c 46.841,0.337 86.991,29.129 87.595,72.539 -0.021,23.768 -8.878,45.594 -28.041,57.337 -16.841,9.602 -34.539,11.502 -52.344,14.667 -11.055,2.315 -27.814,4.548 -28.041,17.068 1.025,20.12 22.349,21.795 36.32,21.868 25.103,0.00 50.207,0.00 75.31,0.00 10.789-0.284 21.439-0.899 30.979-4.80 9.856-4.581 14.861-11.48 14.956-21.334l0.00-75.206c 0.744-24.912 8.844-46.117 26.438-61.604C 316.713,124.526 337.802,118.501 358.928,118.377c 22.57,0.615 43.983,6.814 60.089,20.534 18.497,17.257 26.284,38.847 26.438,61.604 z M 248.899,480.003c 51.541-0.666 100.228-17.064 139.939-43.203l0.00-238.417c-1.327-17.479 -13.981-29.65 -29.91-29.869 -17.454,1.317 -30.218,13.894 -30.444,29.869l0.00,71.472c-0.651,31.64 -9.315,64.874 -40.059,76.539 -8.19,3.022 -16.915,4.534 -26.171,4.534l-122.313,0.00c-21.666-0.545 -41.647-6.66 -57.151-19.734 -16.144-14.856 -23.887-33.321 -24.035-53.337 0.24-13.676 3.357-27.296 10.416-37.87 11.712-15.966 28.535-23.461 45.667-26.669 13.698-3.249 27.757-3.268 40.593-7.467 9.343-3.492 12.219-8.922 12.285-17.601 -0.543-10.323 -6.03-14.842 -14.689-17.334 -12.307-2.873 -25.029-2.395 -36.587-2.40l-108.426,0.00c-5.101,21.221 -7.962,42.81 -8.012,62.937 2.626,138.927 116.163,247.587 248.90,248.551z"  />
<glyph unicode="&#xe029;" d="M 12.996,293.504  m0.00,0.00,0.00,147.244c 1.125,22.497 19.253,38.973 39.244,39.244l 147.244,0.00c 23.679-1.471 51.951-10.755 67.135-27.893l 217.947-242.596c 13.691-17.332 14.078-41.314 0.00-55.784L 313.971-16.876C 297.244-32.008 272.288-31.364 258.187-16.876L 40.889,226.369C 25.047,245.076 13.215,270.087 12.996,293.504 z m 63.892,84.973c 0.929-21.89 18.196-37.687 37.622-37.946 21.953,0.98 37.687,18.478 37.946,37.946 -0.967,21.962 -18.553,37.368 -37.946,37.622 -21.90-0.915 -37.368-18.272 -37.622-37.622z"  />
<glyph unicode="&#xe028;" d="M0.00,281.806  m0.00,0.00,0.00,123.231c 1.475,19.349 15.289,32.606 32.844,32.844l 123.231,0.00c 16.346-0.274 31.574-6.188 44.923-14.25L 394.123,211.505c 11.645-14.953 12.242-33.561 0.00-46.144L 251.348,23.13C 236.921,10.681 216.703,9.555 205.205,23.13L 23.344,225.62C 10.559,241.441 0.19,262.267 0.00,281.806 z m 62.295,48.859c 13.639-12.575 33.214-11.411 44.923,0.00 12.518,13.524 11.472,33.302 0.00,44.923 -13.54,12.326 -33.26,11.348 -44.923,0.00 -12.379-14.458 -11.914-32.52 0.00-44.923 z m 152.41,106.674 47.23,0.00c 19.80-1.221 43.232-9.023 55.915-23.344l 181.861-203.033c 12.288-14.189 11.789-34.57 0.00-46.686L 357.479,22.044c-19.712-11.175 -37.777-10.395 -49.944,3.80l 139.517,139.517c 12.563,13.90 11.221,33.948 0.00,46.144l-162.743,182.094C 265.045,417.642 223.571,436.253 214.704,437.339z"  />
<glyph unicode="&#xe027;" d="M0.00,413.406L0.00,313.406L 512.00,313.406L 512.00,413.406L0.00,413.406 z M 321.219,388.656L 485.75,388.656L 485.75,338.156L 321.219,338.156L 321.219,388.656 z M 0.00,263.375L0.00,163.375L 512.00,163.375L 512.00,263.375L0.00,263.375 z M 208.094,238.625L 485.75,238.625L 485.75,188.125L 208.094,188.125L 208.094,238.625 z M 0.00,113.375L0.00,13.375L 512.00,13.375L 512.00,113.375L0.00,113.375 z M 381.844,88.625L 485.75,88.625L 485.75,38.125L 381.844,38.125L 381.844,88.625z"  />
<glyph unicode="&#xe026;" d="M 423.125,480.00L 334.25,390.656L 393.75,390.656L 393.75,57.344L 334.25,57.344L 423.125-32.00L 512.00,57.344L 452.531,57.344L 452.531,390.656L 512.00,390.656L 423.125,480.00 z M 2.531,391.406L 0.00,300.50L 31.594,300.50C 31.594,362.851 31.637,362.781 111.313,362.781L 111.313,112.00C 111.313,80.741 111.297,80.793 67.563,81.562L 67.563,56.594L 229.469,56.594L 229.469,81.562C 185.806,81.562 185.719,81.639 185.719,112.00L 185.719,362.781C 265.437,362.781 265.656,362.764 265.656,300.50L 297.031,300.50L 294.75,391.406L 2.531,391.406z"  />
<glyph unicode="&#xe025;" d="M 110.00,480.00L 107.50,389.094L 139.094,389.094C 139.094,451.445 139.105,451.375 218.781,451.375L 218.781,200.594C 218.781,169.335 218.765,169.387 175.031,170.156L 175.031,145.187L 336.969,145.187L 336.969,170.156C 293.306,170.156 293.219,170.232 293.219,200.594L 293.219,451.375C 372.937,451.375 373.125,451.358 373.125,389.094L 404.50,389.094L 402.219,480.00L 110.00,480.00 z M 89.344,145.75L 0.00,56.875L 89.344-32.00L 89.344,27.469L 422.656,27.469L 422.656-32.00L 512.00,56.875L 422.656,145.75L 422.656,86.25L 89.344,86.25L 89.344,145.75z"  />
<glyph unicode="&#xe024;" d="M0.00,480.00L0.00,352.00L 128.00,352.00L 128.00,480.00L0.00,480.00 z M 192.00,480.00L 192.00,352.00L 320.00,352.00L 320.00,480.00L 192.00,480.00 z M 384.00,480.00L 384.00,352.00L 512.00,352.00L 512.00,480.00L 384.00,480.00 z M 0.00,288.00L0.00,160.00L 128.00,160.00L 128.00,288.00L0.00,288.00 z M 192.00,288.00L 192.00,160.00L 320.00,160.00L 320.00,288.00L 192.00,288.00 z M 384.00,288.00L 384.00,160.00L 512.00,160.00L 512.00,288.00L 384.00,288.00 z M 0.00,96.00L0.00-32.00L 128.00-32.00L 128.00,96.00L0.00,96.00 z M 192.00,96.00L 192.00-32.00L 320.00-32.00L 320.00,96.00L 192.00,96.00 z M 384.00,96.00L 384.00-32.00L 512.00-32.00L 512.00,96.00L 384.00,96.00z"  />
<glyph unicode="&#xe018;" d="M 512.00,387.415C 508.575,380.185 502.201,371.052 492.878,360.017 483.556,348.982 472.045,339.279 458.346,330.907c 0.381-3.044 0.666-5.898 0.856-8.562C 460.679,281.334 450.856,238.784 437.226,203.334 410.808,137.426 370.327,84.382 312.509,48.365 252.214,13.781 181.995,6.425 117.298,12.69 74.347,17.623 32.014,31.649 0.00,58.068 58.553,51.069 113.197,70.988 156.397,103.161 108.409,101.946 73.542,136.66 57.079,176.793c 7.421-1.945 15.184-1.71 22.261-1.142 8.711,0.818 16.98,1.635 25.115,3.425 -30.599,9.872 -57.373,28.021 -71.349,55.367 -8.198,17.327 -11.899,33.827 -11.987,52.513 14.338-7.549 31.585-14.906 47.376-14.27 -23.847,20.201 -42.965,46.02 -46.519,75.63 -2.244,24.689 3.934,47.227 12.843,68.209 35.672-39.204 75.697-71.467 121.864-91.326 31.572-12.929 63.055-19.843 95.607-19.978 -3.758,29.075 -0.836,57.194 12.843,81.052 16.098,25.65 39.586,40.532 65.926,47.946 37.69,9.665 74.451-3.987 97.605-30.252 24.969,2.697 48.888,13.774 67.924,25.115 -8.089-24.495 -23.839-48.85 -46.805-60.504 21.867,4.05 42.732,10.522 62.216,18.836z"  />
<glyph unicode="&#xe017;" d="M 256.00,480.00 m0.00,0.00,c-141.385,0.00 -256.00-114.615 -256.00-256.00 0.00-141.385 114.615-256.00 256.00-256.00 141.385,0.00 256.00,114.615 256.00,256.00 0.00,141.385 -114.615,256.00 -256.00,256.00 z m 0.00-34.205c 122.499,0.00 221.795-99.297 221.795-221.795 0.00-122.499 -99.297-221.812 -221.795-221.812 -122.499,0.00 -221.812,99.313 -221.812,221.812 0.00,122.499 99.313,221.795 221.812,221.795 z M 393.547,249.103c 7.368-6.967 7.139-16.959 1.637-24.017 -6.729-7.099 -17.335-7.401 -24.017-1.637 -20.87,18.938 -43.709,36.658 -64.955,56.222 -0.065-0.836 -5.76,3.76 -8.188,3.821 -2.183,0.00 -3.275-2.547 -3.275-7.642 1.072-21.024 -0.49-43.221 1.91-63.591 0.91-7.46 1.365-11.736 1.365-12.827l 24.563-139.736c 1.407-12.832 -5.606-22.417 -16.921-24.563 -11.33-3.082 -22.973,6.688 -24.563,16.921 0.00,0.00 -19.816,112.83 -20.196,114.627 -0.38,1.797 -1.05,11.749 -4.913,12.281 -4.963-1.801 -4.388-10.16 -4.913-12.281 -0.524-2.122 -20.196-114.627 -20.196-114.627 -3.32-11.837 -13.524-18.833 -24.563-16.921 -12.613,3.154 -18.778,13.234 -16.921,24.563l 24.563,140.281c 3.627,25.928 2.729,49.121 2.729,75.326 0.00,5.096 -1.00,7.735 -3.002,7.915 -2.002,0.182 -4.64-1.183 -7.915-4.094l-64.955-55.676c-7.59-5.655 -18.20-4.713 -24.017,1.637 -5.881,8.403 -5.505,17.496 1.637,24.017l 85.151,75.326c 4.004,2.547 7.734,4.276 11.19,5.186 3.458,0.91 7.734,1.365 12.827,1.365l 56.768,0.00c 5.094,0.00 9.37-0.455 12.827-1.365 3.457-0.91 7.187-2.82 11.19-5.731 27.111-23.781 55.895-49.366 85.151-74.78 z M 293.56,378.314c0.00-20.62 -16.716-37.335 -37.335-37.335 -20.62,0.00 -37.335,16.716 -37.335,37.335 0.00,20.62 16.716,37.335 37.335,37.335 20.62,0.00 37.335-16.716 37.335-37.335z"  />
<glyph unicode="&#xe016;" d="M 482.462,253.538  m0.00,0.00,0.00-285.538 -452.924,0.00 0.00,285.538 78.223,0.00 0.00,71.658c 1.089,42.255 17.904,81.493 45.402,109.402 13.857,13.857 30.177,24.889 48.957,33.094 18.781,8.205 38.929,12.308 60.444,12.308 41.857-0.852 80.232-17.872 108.034-44.581 29.35-29.821 45.289-69.229 46.222-107.487l-90.803,0.00c-0.555,17.821 -7.004,30.358 -18.598,42.119 -12.989,12.202 -28.439,18.48 -44.855,18.598 -17.821-0.555 -33.093-7.004 -44.855-18.598 -12.202-12.989 -18.48-28.439 -18.598-44.855l0.00-71.658z"  />
<glyph unicode="&#xe015;" d="M 256.00,480.00 m0.00,0.00,c-141.385,0.00 -256.00-114.615 -256.00-256.00 0.00-141.385 114.615-256.00 256.00-256.00 141.385,0.00 256.00,114.615 256.00,256.00 0.00,141.385 -114.615,256.00 -256.00,256.00 z m 3.583-90.65c 47.828,1.937 82.812-39.787 84.523-83.35l-49.751,0.00c-1.851,19.52 -15.669,34.072 -34.772,33.307 -19.103-0.765 -34.347-15.813 -34.756-34.772l0.00-39.246 155.234,0.00 0.00-156.434 -248.138,0.00 0.00,156.434 42.861,0.00 0.00,39.246c 4.044,48.393 36.971,82.878 84.798,84.815z"  />
<glyph unicode="&#xe014;" d="M 256.00-32.00 m0.00,0.00,c-141.384,0.00 -256.00,114.616 -256.00,256.00 0.00,141.384 114.616,256.00 256.00,256.00 141.384,0.00 256.00-114.616 256.00-256.00 0.00-141.384 -114.616-256.00 -256.00-256.00 z m 0.00,456.348c-110.664,0.00 -200.348-89.711 -200.348-200.348 0.00-110.636 89.683-200.348 200.348-200.348 110.664,0.00 200.348,89.711 200.348,200.348 0.00,110.636 -89.683,200.348 -200.348,200.348 z m 50.087-307.478 -100.174,0.00 0.00,113.809 -62.609,0.00 112.696,106.017 112.696-106.017 -62.609,0.00 0.00-113.809z"  />
<glyph unicode="&#xe013;" d="M 400.885,113.756 m0.00,0.00,c-67.132,24.456 -88.592,45.10 -88.592,89.30 0.00,26.526 21.996,43.717 29.494,66.451 7.498,22.734 11.836,49.65 15.442,69.229 3.606,19.579 5.038,27.152 6.999,48.014 2.397,26.036 -15.033,93.249 -108.228,93.249 -93.168,0.00 -110.652-67.214 -108.201-93.249 1.961-20.861 3.401-28.435 6.999-48.014 3.598-19.579 7.894-46.493 15.387-69.229 7.494-22.735 29.522-39.925 29.522-66.451 0.00-44.201 -21.46-64.844 -88.592-89.30 -67.377-24.511 -111.115-48.681 -111.115-65.757 0.00-17.049 0.00-80.00 0.00-80.00l 512.00,0.00c0.00,0.00 0.00,62.952 0.00,80.00 0.00,17.049 -43.765,41.219 -111.115,65.757z"  />
<glyph unicode="&#xe012;" d="M0.00,417.75  m0.00,0.00,0.00-387.50 512.00,0.00 0.00,387.50 z m 62.781-62.813 386.438,0.00 0.00-261.875 -386.438,0.00 z m 135.781-45.594 0.00-174.438L 349.375,222.375z"  />
<glyph unicode="&#xe011;" d="M 256.00,480.00C 114.615,480.00 0.00,365.385 0.00,224.00 0.00,82.615 114.615-32.00 256.00-32.00 397.385-32.00 512.00,82.615 512.00,224.00 512.00,365.385 397.385,480.00 256.00,480.00 z m -152.625-140.50 305.219,0.00 0.00-231.00 -305.219,0.00 z m 37.438-37.438 0.00-156.125 230.375,0.00 0.00,156.125 z M 221.75,274.875 311.656,223.031 221.75,170.875z"  />
<glyph unicode="&#xe010;" d="M 0.00,459.047  m0.00,0.00,0.00-364.594 105.50,0.00 0.00-105.50 164.469,105.50 242.031,0.00 0.00,364.594 -512.00,0.00 z m 112.25-91.594 206.25,0.00 0.00-63.594 81.25,63.594 0.00-170.00 -81.25,63.594 0.00-63.594 -206.25,0.00 0.00,170.00z"  />
<glyph unicode="&#xe00f;" d="M 473.875,480.00L0.00,5.562L 38.125-32.00L 512.00,441.844L 473.875,480.00 z M 0.00,479.25L0.00,359.219L 120.00,359.219L 120.00,479.219L0.00,479.25 z M 141.406,479.25L 141.406,359.219L 261.406,359.219L 261.406,479.219L 141.406,479.25 z M 0.00,335.594L0.00,215.594L 120.00,215.594L 120.00,335.594L0.00,335.594 z M 141.406,335.594L 141.406,215.594L 261.406,335.594L 141.406,335.594 z M 352.313,208.50L 278.313,141.094L 512.00,141.094L 512.00,208.50L 352.313,208.50 z M 262.313,122.312L 262.313,54.906L 512.00,54.906L 512.00,122.312L 262.313,122.312 z M 262.313,36.125L 262.313-31.25L 512.00-31.25L 512.00,36.125L 262.313,36.125z"  />
<glyph unicode="&#xe00e;" d="M 406.461,344.155 m0.00,0.00,c-52.88,43.701 -123.116-16.02 -139.636-63.864 10.187-0.175 21.842,0.884 30.579-2.436 13.491-7.298 13.679-21.365 12.719-33.286 -6.015-26.379 -24.708-74.378 -48.711-78.207 -5.051-0.541 -10.283,2.255 -15.696,8.389 -20.977,26.277 -18.379,60.845 -23.273,89.843 -4.579,24.261 -8.032,73.225 -36.804,83.89 -31.69,3.87 -59.518-19.742 -79.83-38.427 -12.448-11.546 -25.167-22.551 -38.157-33.015l0.00-2.165c 3.09-3.716 5.595-7.505 8.389-11.095 4.741-4.772 13.393-3.604 18.672-1.894 19.198,4.991 25.946,9.883 36.262-8.389C 146.524,211.47 158.296,164.099 168.592,123.876 175.789,100.934 185.281,71.631 208.372,62.176c 14.267-6.062 38.878,2.084 49.793,8.66 46.711,29.51 82.857,76.727 108.786,122.317 18.93,38.413 65.995,114.836 39.51,151.002 z m 105.539,135.848 0.00-512.00 -512.00,0.00 0.00,512.00z"  />
<glyph unicode="&#xe10e;" d="M0.00,480.00L0.00-32.00L 512.00-32.00L 512.00,480.00L0.00,480.00 z M 227.281,343.094C 241.778,343.244 255.958,341.637 262.875,341.437C 288.517,340.699 293.046,327.73 292.719,317.062C 292.239,301.439 282.187,235.351 300.813,228.906C 327.953,243.419 346.152,288.494 359.406,317.062C 366.11,331.513 365.05,332.231 380.50,332.25L 441.875,332.344C 456.654,332.362 456.078,332.88 460.813,326.844C 471.825,312.803 426.062,254.398 411.281,238.25C 384.005,208.449 399.919,196.909 404.313,192.812C 424.668,173.833 444.338,154.151 456.563,136.00C 466.281,121.569 462.268,108.133 449.906,107.625L 384.094,104.906C 362.255,104.009 328.296,143.158 322.875,151.687C 318.491,158.723 297.365,167.541 295.375,149.562L 292.594,124.469C 290.573,106.531 277.329,106.95 266.875,106.50C 194.483,103.385 169.83,130.947 133.375,171.625C 106.657,209.411 81.159,247.413 60.031,292.937C 53.707,306.564 50.358,316.561 49.50,327.156C 60.131,335.465 97.446,331.886 122.50,332.437C 129.353,332.588 133.977,328.662 137.594,320.844C 151.708,290.332 167.102,260.369 187.469,233.875C 196.339,225.705 204.18,222.701 208.094,239.312C 210.366,239.522 210.184,267.03 210.313,287.781C 210.401,302.029 208.727,319.117 184.594,327.00C 189.475,339.797 208.643,342.901 227.281,343.094z"  />
<glyph unicode="&#xe00d;" d="M 0.00,290.839  m0.00,0.00, 121.402,0.00 182.631,148.85 0.00-512.00 -182.631,148.85 -121.402,0.00 z m 372.652,24.28c 35.893-35.893 54.191-79.527 54.895-130.903 0.00-49.265 -18.298-91.492 -54.895-126.681l-36.949,38.004c 25.336,25.336 38.004,55.247 38.004,89.732 0.00,35.189 -12.668,65.803 -38.004,91.844z"  />
<glyph unicode="&#xe00c;" d="M 471.632,154.671 m0.00,0.00,q 1.24-1.24 1.24-2.921Q 472.872,150.068 471.632,148.828L 444.19,121.385q-1.24-1.24 -2.833-1.24 -1.416,0.00 -3.01,1.24L 399.218,160.513 360.089,121.385q-1.24-1.24 -2.833-1.24 -1.416,0.00 -3.01,1.24L 326.804,148.828q-1.062,1.062 -1.062,3.01 0.00,1.771 1.062,2.833L 365.932,193.80 326.98,232.929q-1.24,1.062 -1.24,2.833 0.00,1.948 1.24,3.01l 27.266,27.443q 1.24,1.24 3.01,1.24 1.771,0.00 2.833-1.24L 399.218,227.086 438.347,266.214q 1.24,1.24 2.921,1.24 1.683,0.00 2.921-1.24L 471.632,238.771q 1.24-1.24 1.24-2.921 0.00-1.683 -1.24-2.921L 432.503,193.80 z m -471.631,142.623l 117.259,0.00 l 176.399,143.77l0.00-494.528 l-176.399,143.77l-117.259,0.00 L-39.128,297.294 z"  />
<glyph unicode="&#xe00b;" d="M 0.00,314.007  m0.00,0.00, 104.028,0.00 156.495,127.548 0.00-438.728 -156.495,127.548 -104.028,0.00 z m 319.321,20.806c 30.756-30.756 46.436-68.146 47.039-112.169 0.00-42.214 -15.68-78.398 -47.039-108.551l-31.661,32.565c 21.71,21.71 32.565,47.34 32.565,76.89 0.00,30.153 -10.855,56.386 -32.565,78.70l 31.661,32.565 z m 54.276,53.371c 45.23-45.23 67.844-99.807 67.844-163.731 0.00-63.925 -22.615-118.803 -67.844-164.636l-33.47,33.47c 36.184,35.581 54.276,79.152 54.276,130.714 0.00,51.562 -18.092,95.435 -54.276,131.618 z m 49.753,49.753c 27.741-27.741 49.451-60.005 65.131-96.791 15.68-36.787 23.519-75.684 23.519-116.692 0.00-41.008 -7.84-80.056 -23.519-117.145 -15.68-37.088 -37.39-69.503 -65.131-97.244l-32.565,32.565c 50.054,50.054 75.081,110.511 75.081,181.371 0.00,70.86 -25.027,131.317 -75.081,181.371z"  />
<glyph unicode="&#xe0ab;" d="M 288.00,400.00 L 288.00,240.00 L 448.00,400.00 L 448.00,48.00 L 288.00,208.00 L 288.00,48.00 L 112.00,224.00 Z"  />
<glyph unicode="&#xe09a;" d="M 64.00,32.00 L 64.00,416.00 L 128.00,416.00 L 128.00,240.00 L 288.00,400.00 L 288.00,240.00 L 448.00,400.00 L 448.00,48.00 L 288.00,208.00 L 288.00,48.00 L 128.00,208.00 L 128.00,32.00 Z"  />
<glyph unicode="&#xe099;" d="M 448.00,416.00 L 448.00,32.00 L 384.00,32.00 L 384.00,208.00 L 224.00,48.00 L 224.00,208.00 L 64.00,48.00 L 64.00,400.00 L 224.00,240.00 L 224.00,400.00 L 384.00,240.00 L 384.00,416.00 Z"  />
<glyph unicode="&#xe093;" d="M 256.00,48.00 L 256.00,208.00 L 96.00,48.00 L 96.00,400.00 L 256.00,240.00 L 256.00,400.00 L 432.00,224.00 Z"  />
<glyph unicode="&#xe05d;" d="M 96.00,416.00L 416.00,224.00L 96.00,32.00 z"  />
<glyph unicode="&#xe02e;" d="M 128.00,32.00 L 128.00,416.00 L 192.00,416.00 L 192.00,240.00 L 352.00,400.00 L 352.00,48.00 L 192.00,208.00 L 192.00,32.00 Z"  />
<glyph unicode="&#xe02d;" d="M 384.00,416.00 L 384.00,32.00 L 320.00,32.00 L 320.00,208.00 L 160.00,48.00 L 160.00,400.00 L 320.00,240.00 L 320.00,416.00 Z"  />
<glyph unicode="&#xe10d;" d="M 135.731,448.544  m0.00,0.00,0.00-71.366 -135.731,0.00 0.00-207.941 230.92,0.00 0.00,42.676 50.161,0.00 0.00-42.676 230.92,0.00 0.00,207.941 -135.763,0.00 0.00,71.366 z m 36.894-36.894 166.718,0.00 0.00-34.472 -166.718,0.00 z M 0.00,129.187l0.00-129.731 511.999,0.00 0.00,129.731 -230.92,0.00 0.00-41.223 -50.161,0.00 0.00,41.223z"  />
<glyph unicode="&#xe10c;" d="M 437.563,437.719C 371.643,372.439 274.748,332.499 181.406,326.875l-138.625,0.00C 20.959,326.577 1.231,308.013 0.00,283.531l0.00-62.50c 0.298-21.822 18.299-42.112 42.781-43.344l 55.563,0.00c-14.852-50.368 1.115-101.362 18.344-151.406 25.559-24.133 84.006-21.128 103.063,10.281 -40.579,31.899 -60.327,117.738 -11.406,138.906 83.383-9.461 165.988-51.821 229.219-108.625 21.737,0.298 41.509,18.151 42.781,42.50l0.00,102.50C 497.757,216.327 511.184,232.297 512.00,252.125 511.79,270.024 499.441,287.116 480.344,292.687l0.00,102.25C 480.046,416.76 462.045,436.487 437.563,437.719 z m 1.094-55.281 0.00-260.594C 377.552,169.464 302.073,201.41 224.188,215.75l0.00,72.781C 300.614,300.03 375.353,335.276 438.656,382.437z"  />
<glyph unicode="&#xe10b;" d="M 115.95,481.093  m0.00,0.00,0.00-80.215 42.113,0.00 0.00,80.215 z m 242.871,0.00 0.00-80.215 42.113,0.00 0.00,80.215 z m -328.977-38.541 0.00-112.302 457.228,0.00 0.00,112.302 -56.057,0.00 0.00-71.755 -102.275,0.00 0.00,71.755 -140.596,0.00 0.00-71.755 -102.275,0.00 0.00,71.755 z m 0.00-141.787 0.00-331.672 457.228,0.00 0.00,331.672 z m 179.607-76.675c 23.275-0.229 45.294-11.404 54.051-32.212 4.119-12.429 6.318-25.653 1.191-37.225 -6.419-13.349 -19.445-20.338 -32.212-24.817 23.959-6.251 39.743-21.306 39.888-45.779 -0.386-16.786 -8.223-31.643 -20.085-41.361 -12.613-9.971 -27.887-15.565 -42.834-15.667 -42.15,0.00 -63.232,19.014 -63.232,57.028l 37.225,0.00c 0.79-16.004 8.366-28.142 23.939-28.357 19.799,1.349 27.599,14.364 27.762,31.021 -0.008,10.06 -3.659,20.344 -12.408,24.221 -11.287,4.69 -23.878,4.125 -34.875,4.136l0.00,28.953c 17.975-0.376 42.682,2.79 42.865,24.221 -0.699,15.764 -7.165,27.00 -22.467,27.198 -16.30-0.983 -25.244-10.213 -25.412-24.848l-36.63,0.00c 0.795,36.899 31.105,53.322 63.232,53.487 z m 128.439-3.541 32.807,0.00 0.00-189.979 -35.47,0.00 0.00,152.754c-13.591-11.621 -28.639-19.893 -45.184-24.817l0.00,32.493c 19.302,7.484 35.242,17.336 47.847,29.548z"  />
<glyph unicode="&#xe10a;" d="M 256.00,480.00C 114.615,480.00 0.00,365.385 0.00,224.00C0.00,82.615 114.615-32.00 256.00-32.00C 397.385-32.00 512.00,82.615 512.00,224.00C 512.00,365.385 397.385,480.00 256.00,480.00 z M 166.125,385.469L 192.688,385.469L 192.688,334.875L 166.125,334.875L 166.125,385.469 z M 319.313,385.469L 345.844,385.469L 345.844,334.875L 319.313,334.875L 319.313,385.469 z M 111.813,361.156L 147.156,361.156L 147.156,315.906L 211.656,315.906L 211.656,361.156L 300.313,361.156L 300.313,315.906L 364.844,315.906L 364.844,361.156L 400.188,361.156L 400.188,290.312L 111.813,290.312L 111.813,361.156 z M 111.813,271.719L 400.188,271.719L 400.188,62.531L 111.813,62.531L 111.813,271.719 z M 225.094,223.375C 204.832,223.271 185.72,212.897 185.219,189.625L 208.313,189.625C 208.419,198.855 214.064,204.693 224.344,205.312C 233.994,205.187 238.059,198.098 238.50,188.156C 238.385,174.64 222.805,172.638 211.469,172.875L 211.469,154.625C 218.405,154.618 226.35,154.958 233.469,152.00C 238.987,149.554 241.306,143.064 241.313,136.719C 241.209,126.214 236.268,118.007 223.781,117.156C 213.96,117.292 209.186,124.969 208.688,135.062L 185.219,135.062C 185.219,111.088 198.511,99.094 225.094,99.094C 234.52,99.158 244.139,102.68 252.094,108.969C 259.575,115.098 264.538,124.476 264.781,135.062C 264.69,150.497 254.735,159.995 239.625,163.937C 247.677,166.762 255.889,171.144 259.938,179.562C 263.171,186.861 261.785,195.224 259.188,203.062C 253.665,216.185 239.773,223.23 225.094,223.375 z M 306.094,221.125C 298.144,213.423 288.08,207.22 275.906,202.50L 275.906,182.00C 286.341,185.105 295.835,190.327 304.406,197.656L 304.406,101.312L 326.781,101.312L 326.781,221.125L 306.094,221.125z"  />
<glyph unicode="&#xe0dd;" d="M0.00,480.00  m0.00,0.00,0.00-512.00 399.00,0.00 57.25,0.00 55.75,0.00 0.00,90.625 -55.75,0.00 0.00,49.844 55.75,0.00 0.00,90.625 -55.75,0.00 0.00,49.813 55.75,0.00 0.00,90.625 -55.75,0.00 0.00,49.844 55.75,0.00L 512.00,480.00 456.25,480.00 399.00,480.00 z m 228.125-89.438c 40.869,0.00 74.00-33.131 74.00-74.00 0.00-28.962 -16.636-54.034 -40.875-66.188l 95.875-57.188 0.00-79.531 -258.00,0.00 0.00,79.531L 195.00,250.375c-24.239,12.153 -40.875,37.225 -40.875,66.188 0.00,40.869 33.131,74.00 74.00,74.00z"  />
<glyph unicode="&#xe0dc;" d="M 256.00,480.00C 114.615,480.00 0.00,365.385 0.00,224.00C 0.00,82.615 114.615-32.00 256.00-32.00C 397.385-32.00 512.00,82.615 512.00,224.00C 512.00,365.385 397.385,480.00 256.00,480.00 z M 112.50,367.50L 336.156,367.50L 368.25,367.50L 399.50,367.50L 399.50,316.687L 368.25,316.687L 368.25,288.75L 399.50,288.75L 399.50,237.969L 368.25,237.969L 368.25,210.031L 399.50,210.031L 399.50,159.25L 368.25,159.25L 368.25,131.312L 399.50,131.312L 399.50,80.50L 368.25,80.50L 336.156,80.50L 112.50,80.50L 112.50,367.50 z M 240.375,317.375C 217.466,317.375 198.906,298.784 198.906,275.875C 198.906,259.64 208.225,245.594 221.813,238.781L 168.719,207.00L 168.063,207.00L 168.063,206.719L 168.063,162.156L 312.688,162.156L 312.688,206.719L 312.688,207.00L 312.031,207.00L 258.938,238.781C 272.525,245.594 281.844,259.64 281.844,275.875C 281.844,298.784 263.284,317.375 240.375,317.375z"  />
<glyph unicode="&#xe0db;" d="M 256.00,480.00 m0.00,0.00,c-141.385,0.00 -256.00-114.615 -256.00-256.00 0.00-141.385 114.615-256.00 256.00-256.00 141.385,0.00 256.00,114.615 256.00,256.00 0.00,141.385 -114.615,256.00 -256.00,256.00 z m 0.00-74.656 0.00-362.719c-100.165,0.00 -181.375,81.21 -181.375,181.375 0.00,100.165 81.21,181.344 181.375,181.344z"  />
<glyph unicode="&#xe0da;" d="M 258.179,275.20 m0.00,0.00,c-57.832,0.895 -102.009,47.384 -102.40,102.40 0.956,57.316 47.802,101.998 102.40,102.40 57.882-2.189 101.989-46.494 102.40-102.40 -1.138-57.36 -47.747-102.011 -102.40-102.40 z m 82.791-21.243c 72.783-0.85 109.693-64.696 110.026-128.545l0.00-148.698c0.00-5.81 -2.905-8.715 -8.715-8.715l-53.923,0.00c-5.81,0.00 -8.715,2.905 -8.715,8.715l0.00,129.634c-3.364,18.517 -24.499,13.341 -25.055,0.00l0.00-129.634c-0.246-5.309 -4.659-8.658 -9.26-8.715l-180.289,0.00c-5.81,0.00 -8.715,2.905 -8.715,8.715l0.00,129.634c-3.143,18.85 -24.609,13.675 -25.055,0.00l0.00-129.634c-0.246-5.309 -4.659-8.658 -9.26-8.715l-51.745,0.00c-6.173,0.00 -9.26,2.905 -9.26,8.715l0.00,148.698c-0.418,68.042 42.625,128.04 110.57,128.545l 86.604,0.00z"  />
<glyph unicode="&#xe0d9;" d="M 124.00,449.062  m0.00,0.00,0.00-80.00 264.00,0.00 0.00,80.00 -264.00,0.00 z m -70.00-123.375 0.00-80.00 404.00,0.00 0.00,80.00 -404.00,0.00 z m 46.00-123.375 0.00-80.00 312.00,0.00 0.00,80.00 -312.00,0.00 z m -100.00-123.375 0.00-80.00 512.00,0.00 0.00,80.00 -512.00,0.00z"  />
<glyph unicode="&#xe0d8;" d="M 0.00,449.062  m0.00,0.00,0.00-80.00 512.00,0.00 0.00,80.00 -512.00,0.00 z m 0.00-123.375 0.00-80.00 512.00,0.00 0.00,80.00 -512.00,0.00 z m 0.00-123.375 0.00-80.00 512.00,0.00 0.00,80.00 -512.00,0.00 z m 0.00-123.375 0.00-80.00 512.00,0.00 0.00,80.00 -512.00,0.00z"  />
<glyph unicode="&#xe0d7;" d="M 264.00,449.062  m0.00,0.00,0.00-80.00 -264.00,0.00 0.00,80.00 264.00,0.00 z m 140.00-123.375 0.00-80.00 -404.00,0.00 0.00,80.00 404.00,0.00 z m -92.00-123.375 0.00-80.00 -312.00,0.00 0.00,80.00 312.00,0.00 z m 200.00-123.375 0.00-80.00 -512.00,0.00 0.00,80.00 512.00,0.00z"  />
<glyph unicode="&#xe0d6;" d="M 248.00,449.062  m0.00,0.00,0.00-80.00 264.00,0.00 0.00,80.00 -264.00,0.00 z m -140.00-123.375 0.00-80.00 404.00,0.00 0.00,80.00 -404.00,0.00 z m 92.00-123.375 0.00-80.00 312.00,0.00 0.00,80.00 -312.00,0.00 z m -200.00-123.375 0.00-80.00 512.00,0.00 0.00,80.00 -512.00,0.00z"  />
<glyph unicode="&#xe0d5;" d="M 256.00-32.00  m0.00,0.00,-200.00,300.00 107.75,0.00 0.00,212.00 184.50,0.00 0.00-212.00 107.75,0.00 -200.00-300.00z"  />
<glyph unicode="&#xe0d4;" d="M 0.00,224.00  m0.00,0.00, 300.00-200.00 0.00,107.75 212.00,0.00 0.00,184.50 -212.00,0.00 0.00,107.75 -300.00-200.00z"  />
<glyph unicode="&#xe0af;" d="M 512.00,224.00  m0.00,0.00,-300.00,200.00 0.00-107.75 -212.00,0.00 0.00-184.50 212.00,0.00 0.00-107.75 300.00,200.00z"  />
<glyph unicode="&#xe0ae;" d="M 256.00,480.00L 56.00,180.00L 163.75,180.00L 163.75-32.00L 348.25-32.00L 348.25,180.00L 456.00,180.00L 256.00,480.00z"  />
<glyph unicode="&#xe0ad;" d="M 261.544,327.062 m0.00,0.00,c 5.678,47.457 66.141,32.916 66.241-1.629l-3.258-130.309c-5.379-51.733 -57.256-50.389 -59.182,1.086 z m -89.044-2.172c 0.242,45.096 62.443,39.519 66.241,2.715l 4.343-126.508c 0.247-64.67 -57.372-45.977 -59.182-4.887 z m -21.175-23.347 10.859-106.962c 3.424-42.552 -40.459-55.808 -51.037-16.831l-18.46,110.762c-6.375,49.231 52.421,52.317 58.639,13.031 z M 485.241,293.128C 507.473,276.673 504.583,248.334 483.07,235.302 391.425,195.438 393.266,78.531 326.428,27.894 318.644,22.103 307.332,19.208 292.493,19.208l-179.718,0.00c-33.644,2.052 -48.712,32.591 -53.753,59.725L 0.384,409.048c-4.911,40.641 38.793,38.676 48.323,10.316l 27.148-93.931c-5.519-10.452 -7.568-21.961 -6.516-33.12 5.449-34.948 11.526-69.881 17.375-104.79 2.895-17.375 8.507-31.129 16.831-41.265 8.325-10.136 19.366-15.202 33.12-15.202 15.439-0.228 30.379,7.353 38.549,18.46 21.769-25.741 61.776-24.544 79.814,2.715 18.555-25.241 53.232-28.386 74.114-7.058 22.045,25.657 17.883,58.652 18.732,91.759 12.22-4.293 23.592,5.062 30.948,11.945 21.964,20.52 76.445,63.252 106.419,44.251z"  />
<glyph unicode="&#xe0ac;" d="M 209.003,467.474  m0.00,0.00,0.00-189.274L 29.027,336.683 0.00,247.338 179.975,188.855 68.73,35.735 144.769-19.475 256.015,133.615 367.231-19.475 443.24,35.735 331.994,188.855 512.00,247.338l-29.027,89.345 -180.006-58.483 0.00,189.274 -93.964,0.00z"  />
<glyph unicode="&#xe0aa;" d="M 68.312,81.853 m0.00,0.00,c 91.082-91.082 238.755-91.082 329.837,0.00 91.082,91.082 91.082,238.755 0.00,329.837 -91.082,91.082 -238.755,91.082 -329.837,0.00 -91.082-91.082 -91.082-238.755 0.00-329.837 z m 63.555,22.326 243.954,243.954c 48.69-68.313 42.386-163.762 -18.903-225.051 -61.289-61.289 -156.738-67.594 -225.051-18.903 z M 90.637,145.408C 41.948,213.721 48.251,309.169 109.541,370.459 170.831,431.749 266.279,438.052 334.592,389.363L 90.637,145.408z"  />
<glyph unicode="&#xe0d3;" d="M0.00,445.469L0.00,2.531L 42.781,2.531L 42.781,445.469L0.00,445.469 z M 63.063,445.469L 63.063,2.531L 73.344,2.531L 73.344,445.469L 63.063,445.469 z M 98.906,445.469L 98.906,2.531L 131.406,2.531L 131.406,445.469L 98.906,445.469 z M 146.188,445.469L 146.188,2.531L 160.063,2.531L 160.063,445.469L 146.188,445.469 z M 198.625,445.469L 198.625,2.531L 219.75,2.531L 219.75,445.469L 198.625,445.469 z M 228.313,445.469L 228.313,2.531L 236.563,2.531L 236.563,445.469L 228.313,445.469 z M 258.688,445.469L 258.688,2.531L 268.938,2.531L 268.938,445.469L 258.688,445.469 z M 281.688,445.469L 281.688,2.531L 324.188,2.531L 324.188,445.469L 281.688,445.469 z M 339.188,445.469L 339.188,2.531L 360.594,2.531L 360.594,445.469L 339.188,445.469 z M 391.438,445.469L 391.438,2.531L 396.188,2.531L 396.188,445.469L 391.438,445.469 z M 403.594,445.469L 403.594,2.531L 417.875,2.531L 417.875,445.469L 403.594,445.469 z M 438.656,445.469L 438.656,2.531L 448.938,2.531L 448.938,445.469L 438.656,445.469 z M 469.50,445.469L 469.50,2.531L 512.00,2.531L 512.00,445.469L 469.50,445.469z"  />
<glyph unicode="&#xe0d2;" d="M0.00,480.00L0.00-32.00L 512.00-32.00L 512.00,480.00L0.00,480.00 z M 79.563,268.437L 209.813,268.437C 223.137,268.344 237.143,263.219 247.875,253.344C 257.754,243.59 263.557,229.602 263.844,214.625C 263.795,203.124 261.604,189.871 253.969,179.312C 248.633,172.13 240.279,166.699 231.063,163.594L 231.063,162.375C 240.769,159.948 250.337,154.762 257.156,146.187C 265.267,135.698 268.042,121.549 268.281,107.625C 268.185,92.853 263.07,77.033 251.625,65.312C 241.452,55.317 226.845,49.596 211.469,49.281L 79.563,49.281L 79.563,268.437 z M 307.813,268.00L 404.688,268.00L 404.688,232.062L 307.813,232.062L 307.813,268.00 z M 354.188,221.312C 367.704,221.312 379.695,219.557 390.156,216.031C 400.71,212.609 409.591,207.259 416.813,200.00C 424.033,192.845 429.484,183.721 433.188,172.625C 438.072,158.101 438.998,139.506 438.906,122.531L 326.281,122.531C 326.281,110.917 328.59,101.898 333.219,95.469C 337.94,89.143 345.667,86.00 356.406,86.00C 366.609,86.048 378.56,89.32 382.50,100.781C 383.518,103.788 384.031,106.984 384.031,110.406L 438.906,110.406C 438.792,92.968 433.178,75.649 418.469,62.812C 402.22,49.596 379.508,45.825 357.656,45.406C 344.14,45.406 331.924,47.109 321.00,50.531C 310.168,54.057 300.966,59.46 293.375,66.719C 285.784,73.978 279.948,83.102 275.875,94.094C 271.802,105.189 269.75,118.298 269.75,133.437C 269.75,148.163 271.738,161.008 275.719,172.00C 279.70,182.992 285.343,192.116 292.656,199.375C 300.062,206.737 308.944,212.245 319.313,215.875C 329.774,219.504 341.412,221.312 354.188,221.312 z M 142.344,220.375L 142.344,183.062L 185.531,183.062C 189.424,183.093 193.129,184.875 195.938,188.031C 198.665,191.353 200.003,195.729 200.094,200.312L 200.094,203.437C 200.065,207.574 198.476,211.846 195.781,215.406C 193.332,218.299 189.66,220.166 185.531,220.375L 142.344,220.375 z M 356.406,180.875C 346.871,180.875 339.753,178.331 335.031,173.25C 330.402,168.169 327.581,161.273 326.563,152.562L 381.813,152.562C 381.812,161.377 379.60,168.272 375.156,173.25C 370.712,178.331 364.46,180.875 356.406,180.875 z M 142.344,137.781L 142.344,100.312L 190.094,100.312C 193.943,100.342 197.628,102.109 200.50,105.125C 203.215,108.431 204.619,112.828 204.688,117.406L 204.688,120.687C 204.662,124.861 203.31,129.214 200.50,132.812C 198.034,135.722 194.215,137.545 190.094,137.781L 142.344,137.781z"  />
<glyph unicode="&#xe0d1;" d="M 221.761,480.00L 221.761,448.471C 152.171,433.205 100.016,371.342 99.696,297.245L 99.696,161.285L-0.779,74.394L-0.779,50.747L 99.696,50.747L 410.747,50.747L 511.221,50.747L 511.221,74.394L 410.747,161.285L 410.747,297.245C 410.427,371.342 358.271,433.205 288.682,448.471L 288.682,480.00L 221.761,480.00 z M 255.221,44.174C 234.613,44.174 217.898,27.49 217.898,6.881C 217.898-13.727 234.613-30.442 255.221-30.442C 275.83-30.442 292.545-13.727 292.545,6.881C 292.545,27.49 275.83,44.174 255.221,44.174z"  />
<glyph unicode="&#xe0d0;" d="M 160.348,480.00 m0.00,0.00,c-27.387,0.00 -49.588-22.201 -49.588-49.588 0.00-27.387 22.201-49.588 49.588-49.588 27.387,0.00 49.588,22.201 49.588,49.588 0.00,27.387 -22.201,49.588 -49.588,49.588 z m -41.207-124.714 -53.288-71.947c-2.131-2.842 -3.194-5.848 -3.194-9.045l-6.388-59.155c-2.883-25.808 34.024-31.771 38.362-3.731l 5.329,54.886 13.852,18.643 0.537-77.261 -26.106-93.769 -66.603-84.724c-19.365-30.142 20.659-52.587 41.018-28.78l 69.275,88.993c 1.861,2.505 3.013,5.855 4.253,9.045l 20.794,73.545 46.885-52.751 25.569-119.369c 7.058-31.866 56.074-20.892 50.094,9.599l-27.182,124.145c-0.648,3.198 -1.35,6.744 -4.253,9.06l-57.542,65.544 0.00,57.021 0.00,23.972 22.375-28.241c 2.487-3.197 6.222-5.504 11.195-6.925l 52.751-10.12 195.539-257.366c 3.491-4.855 13.373-0.018 9.599,6.388L 299.783,243.38c 21.429,7.184 9.862,31.592 -4.27,34.107l-56.482,11.18 -58.08,73.007c-18.396,18.269 -49.16,13.779 -61.811-6.388z"  />
<glyph unicode="&#xe0cf;" d="M0.00,480.00L0.00-32.00L 512.00-32.00L 512.00,480.00L0.00,480.00 z M 273.813,386.219C 322.949,382.283 351.51,350.819 354.906,310.594C 357.545,289.892 356.825,274.523 353.813,263.219C 381.841,262.30 414.599,249.847 416.688,204.625L 416.688,160.125C 413.781,121.251 399.827,73.219 328.25,63.031L 208.469,62.594C 135.861,61.275 95.874,92.942 95.50,160.687L 96.438,310.844C 99.563,354.522 134.953,380.13 176.25,385.812L 273.813,386.219 z M 192.219,325.469C 150.393,318.679 148.326,271.316 192.219,265.469L 271.625,265.469C 313.45,272.259 315.518,319.621 271.625,325.469L 192.219,325.469 z M 174.219,194.469C 131.16,187.841 130.49,134.062 175.719,128.50L 321.563,128.00C 364.255,134.571 364.135,188.28 320.031,193.969L 174.219,194.469z"  />
<glyph unicode="&#xe0ce;" d="M 0.002-27.125  m0.00,0.00,0.00,40.705 64.253,0.00 0.00,420.836 -64.253,0.00 0.00,40.705 297.714,0.00c 61.225-0.001 107.198-10.317 137.924-30.949 30.724-20.632 46.085-51.693 46.087-93.183 -0.001-29.828 -10.653-53.488 -31.959-70.98 -21.082-17.492 -52.479-28.483 -94.193-32.968 50.46-4.711 89.146-18.166 116.058-40.369 26.912-22.203 40.367-51.693 40.369-88.473 -0.001-49.787 -18.839-86.454 -56.514-110.002 -37.453-23.548 -96.211-35.322 -176.274-35.322l-279.211,0.00m 193.766,292.668 44.068,0.00c 38.574,0.00 67.167,6.951 85.782,20.856 18.614,14.129 27.921,35.658 27.921,64.589 0.00,29.154 -9.084,50.348 -27.248,63.579 -17.942,13.231 -46.761,19.847 -86.454,19.847l-44.068,0.00 0.00-168.873m0.00-251.963 48.106,0.00c 42.835,0.00 74.568,8.522 95.20,25.567 20.632,17.045 30.949,43.395 30.949,79.055 0.00,35.882 -10.429,62.682 -31.285,80.40 -20.856,17.716 -52.479,26.576 -94.864,26.576l-48.106,0.00 0.00-211.596"  />
<glyph unicode="&#xe0f5;" d="M 189.435,475.419 m0.00,0.00,c-31.746,16.71 -94.311-15.577 -112.283-44.001 -8.008-12.719 -7.441-21.885 -7.441-27.086l0.00-278.21 234.624-145.994 44.121,24.091 0.00,270.944L 107.559,413.472c 12.927,16.269 42.001,36.109 63.801,28.141l 214.575-114.769 0.00-301.835 44.233,24.134 0.00,301.823z"  />
<glyph unicode="&#xe0f4;" d="M 100.00,480.00L 100.00,16.00L 100.00-32.00L 256.00,124.00L 412.00-32.00L 412.00,16.00L 412.00,480.00L 100.00,480.00z"  />
<glyph unicode="&#xe0f3;" d="M 100.00,480.00L 100.00,16.00L 100.00-32.00L 256.00,124.00L 412.00-32.00L 412.00,16.00L 412.00,480.00L 100.00,480.00 z M 132.00,448.00L 380.00,448.00L 380.00,48.00L 256.00,172.00L 132.00,48.00L 132.00,448.00z"  />
<glyph unicode="&#xe0f2;" d="M 217.688,31.581 m0.00,0.00,c0.00-35.115 -28.466-63.581 -63.581-63.581 -35.115,0.00 -63.581,28.466 -63.581,63.581 0.00,35.115 28.466,63.581 63.581,63.581 35.115,0.00 63.581-28.466 63.581-63.581 z m 0.00,192.419c0.00-35.115 -28.466-63.581 -63.581-63.581 -35.115,0.00 -63.581,28.466 -63.581,63.581 0.00,35.115 28.466,63.581 63.581,63.581 35.115,0.00 63.581-28.466 63.581-63.581 z m 0.00,192.419c0.00-35.115 -28.466-63.581 -63.581-63.581 -35.115,0.00 -63.581,28.466 -63.581,63.581 0.00,35.115 28.466,63.581 63.581,63.581 35.115,0.00 63.581-28.466 63.581-63.581 z M 421.474,31.581c0.00-35.115 -28.466-63.581 -63.581-63.581 -35.115,0.00 -63.581,28.466 -63.581,63.581 0.00,35.115 28.466,63.581 63.581,63.581 35.115,0.00 63.581-28.466 63.581-63.581 z m 0.00,192.419c0.00-35.115 -28.466-63.581 -63.581-63.581 -35.115,0.00 -63.581,28.466 -63.581,63.581 0.00,35.115 28.466,63.581 63.581,63.581 35.115,0.00 63.581-28.466 63.581-63.581 z m 0.00,192.419c0.00-35.115 -28.466-63.581 -63.581-63.581 -35.115,0.00 -63.581,28.466 -63.581,63.581 0.00,35.115 28.466,63.581 63.581,63.581 35.115,0.00 63.581-28.466 63.581-63.581z"  />
<glyph unicode="&#xe0a9;" d="M 166.712,416.78  m0.00,0.00,-16.109-64.781 -150.603,0.00 0.00-320.781 512.00,0.00 0.00,320.781 -143.578,0.00 -16.109,64.781 -185.60,0.00 z m 90.599-64.656c 79.529,0.00 143.984-64.455 143.984-143.984 0.00-79.529 -64.456-143.984 -143.984-143.984 -79.529,0.00 -143.984,64.456 -143.984,143.984 0.00,79.529 64.455,143.984 143.984,143.984 z m 168.835-31.344 72.585,0.00 0.00-42.146 -72.585,0.00 0.00,42.146 z m -168.835-11.177c-56.037,0.00 -101.463-45.427 -101.463-101.463 0.00-56.037 45.427-101.463 101.463-101.463 56.037,0.00 101.463,45.427 101.463,101.463 0.00,56.037 -45.427,101.463 -101.463,101.463z"  />
<glyph unicode="&#xe0a8;" d="M 256.00,437.531L0.00,387.531L0.00,60.469L 256.00,10.469L 512.00,60.469L 512.00,387.531L 256.00,437.531 z M 171.125,323.375C 196.102,323.375 215.459,315.374 229.156,299.375C 230.077,298.109 230.985,296.901 231.906,295.75C 238.812,285.621 242.962,272.304 244.344,255.844L 214.656,255.844C 211.548,278.634 200.079,291.838 180.281,295.406L 170.781,296.094C 148.681,296.094 133.506,284.284 125.219,260.687C 121.42,249.868 119.50,237.036 119.50,222.187C 119.50,189.958 128.853,168.486 147.50,157.781C 154.291,153.868 162.292,151.906 171.50,151.906C 196.708,151.906 211.769,166.772 216.719,196.469L 246.406,196.469C 243.874,164.125 230.361,142.538 205.844,131.719C 195.714,127.00 184.018,124.625 170.781,124.625C 140.394,124.625 117.899,137.003 103.281,161.75C 93.612,178.21 88.781,198.361 88.781,222.187C 88.781,259.941 99.61,287.907 121.25,306.094C 135.178,317.604 151.787,323.375 171.125,323.375 z M 347.938,323.375C 372.915,323.375 392.24,315.374 405.938,299.375C 406.858,298.109 407.798,296.901 408.719,295.75C 415.625,285.621 419.775,272.304 421.156,255.844L 391.438,255.844C 388.329,278.634 376.892,291.838 357.094,295.406L 347.594,296.094C 325.494,296.094 310.287,284.284 302.00,260.687C 298.202,249.868 296.313,237.036 296.313,222.187C 296.313,189.958 305.634,168.486 324.281,157.781C 331.072,153.868 339.073,151.906 348.281,151.906C 373.489,151.906 388.582,166.772 393.531,196.469L 423.219,196.469C 420.686,164.125 407.173,142.538 382.656,131.719C 372.527,127.00 360.831,124.625 347.594,124.625C 317.206,124.625 294.712,137.003 280.094,161.75C 270.425,178.21 265.594,198.361 265.594,222.187C 265.594,259.941 276.392,287.907 298.031,306.094C 311.959,317.604 328.60,323.375 347.938,323.375z"  />
<glyph unicode="&#xe0a7;" d="M 465.555,77.323  m0.00,0.00,-85.808-10.332 -26.897-82.136 -77.772,37.70 -67.033-54.556 -45.044,73.762 -85.887-9.655 1.985,86.405 -77.473,38.312 48.384,71.615 -44.461,74.115 79.422,34.088 2.667,86.387 85.243-14.262 48.948,71.232 64.001-58.084 79.688,33.461 22.438-83.465 85.128-14.934 -26.248-82.346 63.541-58.587 -66.601-55.083z"  />
<glyph unicode="&#xe0a6;" d="M 0.00,480.00L 0.00,149.031L 0.00-32.00L 181.031-32.00L 512.00-32.00L 512.00,298.969L 428.00,214.969L 428.00,52.00L 265.031,52.00L 84.00,52.00L 84.00,233.031L 84.00,396.00L 246.969,396.00L 330.969,480.00L 0.00,480.00 z M 439.469,473.531L 254.219,288.25L 188.031,354.437L 120.156,286.531L 254.219,152.50L 322.094,220.375L 507.344,405.656L 439.469,473.531z"  />
<glyph unicode="&#xe0a5;" d="M 0.00,480.00L 0.00-32.00L 512.00-32.00L 512.00,480.00L 0.00,480.00 z M 84.00,396.00L 428.00,396.00L 428.00,52.00L 84.00,52.00L 84.00,396.00z"  />
<glyph unicode="&#xe0a4;" d="M 256.00,57.872 332.255,134.127 512.00,313.872 435.744,390.127 256.00,210.383 76.255,390.127l-76.255-76.255 179.745-179.745 76.255-76.255z"  />
<glyph unicode="&#xe0cd;" d="M 89.872,224.00  m0.00,0.00, 76.255-76.255 179.745-179.745 76.255,76.255L 242.383,224.00 422.127,403.744 345.872,480.00 166.128,300.255 89.872,224.00z"  />
<glyph unicode="&#xe0cc;" d="M 422.128,224.00 345.872,300.255 166.128,480.00l-76.255-76.255 179.745-179.745 -179.745-179.745 76.255-76.255 179.745,179.745 76.255,76.255z"  />
</font>
</defs>
</svg>
